找回密码

蓝光电影网

查看: 32|回复: 0

[剧情] 不夜城 Sleepless.Town.1998.JAPANESE.1080p.AMZN.WEBRip.DD5.1.x264-SbR 11.80GB

[复制链接]
蓝光币
519
发表于 2021-8-20 01:20:09 | 显示全部楼层 |阅读模式


◎译  名 Fuyajo/Sleepless Town
◎片  名 不夜城
◎年  代 1998
◎产  地 中国香港,日本
◎类  别 剧情 / 恋爱
◎语  言 日语,普通话
◎上映日期 1998-06-27(日本)
◎IMDb评分  7.1/10 from 538 users
◎IMDb链接  https://www.imdb.com/title/tt0169929/
◎豆瓣评分 8.2/10 from 21141 users
◎豆瓣链接 https://movie.douban.com/subject/1307679/
◎片  长 122 分钟
◎导  演 李志毅 Chi-ngai Lee
◎编  剧 李志毅 Chi-ngai Lee / 野泽尚 Hisashi Nozawa / 驰星周 Seishu Hase
◎主  演 金城武 Takeshi Kaneshiro
       山本未来 Mirai Yamamoto
       椎名桔平 Kippei Shiina
       郎雄 Sihung Lung
       曾志伟 Eric Tsang
       周海媚 Kathy Chow
       铃木清顺 Seijun Suzuki
       驰星周 Seishu Hase
       森田芳光 Yoshimitsu Morita
       长江英和 Hidekazu Nagae
       永泽俊矢 Toshiya Nagasawa
       修健 Jian Xiu
       佐佐木梦绘 Yumeka Sasaki
       田口智朗 Tomorowo Taguchi
       谷原章介 Sh?suke Tanihara
       翁华荣 Hua Rong Weng
       余为彦 Wei-yen Yu
       Ken Osamu
       温翠苹 Tsui Ping Wen
◎标  签 金城武 | 日本 | 黑帮 | 香港 | 恋爱 | 日本电影 | 香港电影 | 李志毅
◎简  介


  刘健一(金城武饰)是新宿歌舞伎町的混混,身为台湾与日本人的残留孤儿,混血的他被叫作半唐番,不为社会所包容。歌舞伎町有着上海帮、福建帮、北京帮、台湾帮等,各方气力构成复杂的角力情势。年关将至,似乎是由于健一的前度拍档吴富春(椎名桔平饰)返回歌舞伎町,他因杀死元成贵(曾志伟饰)的手下而流亡,元成贵遂限令健一在三日内交出富春,否则二人便只要死路一条。此时左藤夏美(山本未来饰)出现,她称与有过节,为了活命情愿出售一切,健一被她吸引。富春终究现身,狙击元成贵的情妇黄秀红的夜总会“上海滩”,令健一堕入绝境。一切人都劝他分开歌舞伎町,但真相并不是那末简单,命运并没有眷顾二人……
◎获奖情况
  第18届香港电影金像奖 ?(1999)
  最好摄影 黄岳泰
  最好美术指导 耕田阳平
  最好打扮外型设想(提名) 耕田阳平
  
  第22届日本电影学院奖 ?(1999)
  最好美术指导(提名) 耕田阳平
  1. Video
  2. ID                                       : 1
  3. Format                                   : AVC
  4. Format/Info                              : Advanced Video Codec
  5. Format profile                           : [email protected]
  6. Format settings                          : CABAC / 4 Ref Frames
  7. Format settings, CABAC                   : Yes
  8. Format settings, Reference frames        : 4 frames
  9. Codec ID                                 : V_MPEG4/ISO/AVC
  10. Duration                                 : 2 h 2 min
  11. Bit rate mode                            : Variable
  12. Bit rate                                 : 13.1 Mb/s
  13. Maximum bit rate                         : 15.0 Mb/s
  14. Width                                    : 1 920 pixels
  15. Height                                   : 1 080 pixels
  16. Display aspect ratio                     : 16:9
  17. Frame rate mode                          : Constant
  18. Frame rate                               : 23.976 (24000/1001/189150) FPS
  19. Color space                              : YUV
  20. Chroma subsampling                       : 4:2:0
  21. Bit depth                                : 8 bits
  22. Scan type                                : Progressive
  23. Bits/(Pixel*Frame)                       : 0.264
  24. Stream size                              : 11.2 GiB (95%)
  25. Writing library                          : x264 core 148 r2623 d5b2374
  26. Encoding settings                        : cabac=1 / ref=4 / deblock=1:-1:-1 / analyse=0x3:0x133 / me=umh / subme=9 / psy=1 / psy_rd=1.00:0.15 / mixed_ref=1 / me_range=24 / chroma_me=1 / trellis=2 / 8x8dct=1 / cqm=0 / deadzone=21,11 / fast_pskip=1 / chroma_qp_offset=-3 / threads=34 / lookahead_threads=5 / sliced_threads=0 / nr=150 / decimate=1 / interlaced=0 / bluray_compat=0 / constrained_intra=0 / bframes=8 / b_pyramid=2 / b_adapt=2 / b_bias=0 / direct=3 / weightb=1 / open_gop=0 / weightp=2 / keyint=120 / keyint_min=61 / scenecut=0 / intra_refresh=0 / rc_lookahead=120 / rc=crf / mbtree=1 / crf=18.0 / qcomp=0.60 / qpmin=0 / qpmax=69 / qpstep=4 / vbv_maxrate=15000 / vbv_bufsize=31250 / crf_max=0.0 / nal_hrd=vbr / filler=0 / ip_ratio=1.40 / aq=3:1.00
  27. Language                                 : Japanese
  28. Default                                  : Yes
  29. Forced                                   : No
  30. Color range                              : Limited
  31. Color primaries                          : BT.709
  32. Transfer characteristics                 : BT.709
  33. Matrix coefficients                      : BT.709
  34. Audio
  35. ID                                       : 2
  36. Format                                   : AC-3
  37. Format/Info                              : Audio Coding 3
  38. Commercial name                          : Dolby Digital
  39. Codec ID                                 : A_AC3
  40. Duration                                 : 2 h 2 min
  41. Bit rate mode                            : Constant
  42. Bit rate                                 : 640 kb/s
  43. Channel(s)                               : 6 channels
  44. Channel layout                           : L R C LFE Ls Rs
  45. Sampling rate                            : 48.0 kHz
  46. Frame rate                               : 31.250 FPS (1536 SPF)
  47. Compression mode                         : Lossy
  48. Stream size                              : 561 MiB (5%)
  49. Language                                 : Japanese
  50. Service kind                             : Complete Main
  51. Default                                  : Yes
  52. Forced                                   : No
  53. Text
  54. ID                                       : 3
  55. Format                                   : UTF-8
  56. Codec ID                                 : S_TEXT/UTF8
  57. Codec ID/Info                            : UTF-8 Plain Text
  58. Duration                                 : 2 h 2 min
  59. Bit rate                                 : 43 b/s
  60. Count of elements                        : 1258
  61. Stream size                              : 39.1 KiB (0%)
  62. Language                                 : English
  63. Default                                  : Yes
  64. Forced                                   : No
  65. Menu
  66. 00:00:00.000                             : en: 1. Registration Status
  67. 00:09:37.744                             : en: 2. Nightmares
  68. 00:19:59.532                             : en: 3. A Shanghai Meeting
  69. 00:31:47.989                             : en: 4. The God of Luck
  70. 00:42:57.658                             : en: 5. A Storm is Coming
  71. 00:54:38.609                             : en: 6. On My Way
  72. 01:06:32.822                             : en: 7. Two Kinds of People
  73. 01:17:27.309                             : en: 8. Unforgettable
  74. 01:27:50.223                             : en: 9. Finding Truth
  75. 01:38:43.626                             : en:10. Interference
  76. 01:49:51.752                             : en:11. Outsmarted
  77. 01:59:24.324                             : en:12. Ending Credits
复制代码






                                       
                                       

                                       
                                       
                                       




回复

使用道具 举报

懒得打字嘛,点击右侧快捷回复 【右侧内容,后台自定义】
您需要登录后才可以回帖 登录 | 立即加入

本版积分规则

Archiver|小黑屋| 蓝光电影网 |网站地图

Copyright © 2021 Comsenz Inc. Powered by 蓝光电影网

蓝光电影网

本站内容由用户自主分享和转载自互联网,转载目的在于传递更多信息,并不代表本网赞同其观点和对其真实性负责。

如有侵权、违反国家法律政策行为,请联系我们,我们会第一时间及时清除和处理!

举报反馈邮箱:[email protected]

快速回复 返回顶部 返回列表