找回密码

蓝光电影网

查看: 20|回复: 0

[爱情] 旅馆恋曲/恋栈 Falling.Inn.Love.2019.1080p.NF.WEBRip.DDP5.1.x264-CM 4.66GB

[复制链接]
蓝光币
519
发表于 2019-8-29 18:40:04 | 显示全部楼层 |阅读模式


◎译  名 旅店恋曲 / 恋栈(港) / 爱巢停止式(台)
◎片  名 Falling Inn Love
◎年  代 2019
◎产  地 美国
◎类  别 恋爱
◎语  言 英语
◎上映日期 2019-08-29(美国)
◎IMDb链接  http://www.imdb.com/title/tt9860728
◎豆瓣评分 0/10 from 0 users
◎豆瓣链接 https://movie.douban.com/subject/33399981/
◎导  演 罗杰·昆宝 Roger Kumble
◎主  演 克里斯蒂娜·米利安 Christina Milian
       亚当·迪莫斯 Adam Demos

◎标  签 恋爱 | 笑剧 | 网飞 | 美国 | 2019观望 | 未上映
◎简  介  
  一周之内,盖布瑞拉·迪亚兹(克里斯蒂娜·米利安饰演)失恋,她在旧金山的设想公司也不幸开张。在酒精的刺激下,她翻开 Wi-Fi 收集加入了一个“赢取旅店”的角逐,赢来的旅店可以饱览新西兰乡下美景。飞翔数千里后,她发现铃鸟谷农场表面褴褛不胜、山羊踩在地板上、邻人乱占地方又爱管闲事。她想要创新并尽快将屋子卖进来,因而,她与杰克·泰勒(亚当·迪莫斯饰演)合作,杰克·泰勒是一位新西兰承包商,也是自愿消防员,他留意到了这个城市女孩所遭到的文化冲击。但当一切的工作完成后,她发现自己心里不想分开这个汉子、这个旅店、以及这个培育了自己缔造性又布满魅力的社区。
  1. Video
  2. ID                                       : 1
  3. Format                                   : AVC
  4. Format/Info                              : Advanced Video Codec
  5. Format profile                           : [email protected]
  6. Format settings                          : CABAC / 3 Ref Frames
  7. Format settings, CABAC                   : Yes
  8. Format settings, Reference frames        : 3 frames
  9. Codec ID                                 : V_MPEG4/ISO/AVC
  10. Duration                                 : 1 h 38 min
  11. Bit rate mode                            : Variable
  12. Bit rate                                 : 6 190 kb/s
  13. Maximum bit rate                         : 9 285 kb/s
  14. Width                                    : 1 920 pixels
  15. Height                                   : 1 080 pixels
  16. Display aspect ratio                     : 16:9
  17. Frame rate mode                          : Constant
  18. Frame rate                               : 23.976 (24000/1001) FPS
  19. Color space                              : YUV
  20. Chroma subsampling                       : 4:2:0
  21. Bit depth                                : 8 bits
  22. Scan type                                : Progressive
  23. Bits/(Pixel*Frame)                       : 0.125
  24. Stream size                              : 4.21 GiB (90%)
  25. Writing library                          : x264 core 148 r2715 7e75228
  26. Encoding settings                        : cabac=1 / ref=3 / deblock=1:0:0 / analyse=0x1:0x111 / me=umh / subme=10 / psy=1 / psy_rd=1.00:0.00 / mixed_ref=1 / me_range=24 / chroma_me=1 / trellis=2 / 8x8dct=0 / cqm=0 / deadzone=21,11 / fast_pskip=1 / chroma_qp_offset=-2 / threads=8 / lookahead_threads=1 / sliced_threads=0 / nr=0 / decimate=1 / interlaced=0 / bluray_compat=0 / stitchable=1 / constrained_intra=0 / bframes=2 / b_pyramid=0 / b_adapt=2 / b_bias=0 / direct=3 / weightb=1 / open_gop=0 / weightp=2 / keyint=250 / keyint_min=23 / scenecut=0 / intra_refresh=0 / rc_lookahead=48 / rc=2pass / mbtree=1 / bitrate=6190 / ratetol=1.0 / qcomp=0.50 / qpmin=6 / qpmax=51 / qpstep=4 / cplxblur=20.0 / qblur=0.5 / vbv_maxrate=9285 / vbv_bufsize=12380 / nal_hrd=vbr / filler=0 / ip_ratio=1.40 / aq=1:1.00
  27. Default                                  : Yes
  28. Forced                                   : No
  29. Audio
  30. ID                                       : 2
  31. Format                                   : E-AC-3
  32. Format/Info                              : Enhanced AC-3
  33. Commercial name                          : Dolby Digital Plus
  34. Codec ID                                 : A_EAC3
  35. Duration                                 : 1 h 38 min
  36. Bit rate mode                            : Constant
  37. Bit rate                                 : 640 kb/s
  38. Channel(s)                               : 6 channels
  39. Channel layout                           : L R C LFE Ls Rs
  40. Sampling rate                            : 48.0 kHz
  41. Frame rate                               : 31.250 FPS (1536 SPF)
  42. Compression mode                         : Lossy
  43. Stream size                              : 451 MiB (9%)
  44. Title                                    : English
  45. Language                                 : English
  46. Service kind                             : Complete Main
  47. Default                                  : Yes
  48. Forced                                   : No
  49. Text #1
  50. ID                                       : 3
  51. Format                                   : UTF-8
  52. Codec ID                                 : S_TEXT/UTF8
  53. Codec ID/Info                            : UTF-8 Plain Text
  54. Duration                                 : 1 h 34 min
  55. Bit rate                                 : 82 b/s
  56. Count of elements                        : 1880
  57. Stream size                              : 57.5 KiB (0%)
  58. Title                                    : English
  59. Language                                 : English
  60. Default                                  : Yes
  61. Forced                                   : No
  62. Text #2
  63. ID                                       : 4
  64. Format                                   : UTF-8
  65. Codec ID                                 : S_TEXT/UTF8
  66. Codec ID/Info                            : UTF-8 Plain Text
  67. Duration                                 : 1 h 34 min
  68. Bit rate                                 : 91 b/s
  69. Count of elements                        : 2143
  70. Stream size                              : 63.7 KiB (0%)
  71. Title                                    : English [SDH]
  72. Language                                 : English
  73. Default                                  : No
  74. Forced                                   : No
  75. Text #3
  76. ID                                       : 5
  77. Format                                   : UTF-8
  78. Codec ID                                 : S_TEXT/UTF8
  79. Codec ID/Info                            : UTF-8 Plain Text
  80. Duration                                 : 1 h 36 min
  81. Bit rate                                 : 1 b/s
  82. Count of elements                        : 30
  83. Stream size                              : 930 Bytes (0%)
  84. Title                                    : Castilian [Forced]
  85. Language                                 : Spanish
  86. Default                                  : No
  87. Forced                                   : Yes
  88. Text #4
  89. ID                                       : 6
  90. Format                                   : UTF-8
  91. Codec ID                                 : S_TEXT/UTF8
  92. Codec ID/Info                            : UTF-8 Plain Text
  93. Duration                                 : 1 h 36 min
  94. Bit rate                                 : 68 b/s
  95. Count of elements                        : 1645
  96. Stream size                              : 48.9 KiB (0%)
  97. Title                                    : Castilian
  98. Language                                 : Spanish
  99. Default                                  : No
  100. Forced                                   : No
  101. Text #5
  102. ID                                       : 7
  103. Format                                   : UTF-8
  104. Codec ID                                 : S_TEXT/UTF8
  105. Codec ID/Info                            : UTF-8 Plain Text
  106. Duration                                 : 1 h 36 min
  107. Bit rate                                 : 1 b/s
  108. Count of elements                        : 26
  109. Stream size                              : 902 Bytes (0%)
  110. Title                                    : Spanish [Forced]
  111. Language                                 : Spanish
  112. Default                                  : No
  113. Forced                                   : Yes
  114. Text #6
  115. ID                                       : 8
  116. Format                                   : UTF-8
  117. Codec ID                                 : S_TEXT/UTF8
  118. Codec ID/Info                            : UTF-8 Plain Text
  119. Duration                                 : 1 h 37 min
  120. Bit rate                                 : 65 b/s
  121. Count of elements                        : 1468
  122. Stream size                              : 46.5 KiB (0%)
  123. Title                                    : Spanish
  124. Language                                 : Spanish
  125. Default                                  : No
  126. Forced                                   : No
  127. Text #7
  128. ID                                       : 9
  129. Format                                   : UTF-8
  130. Codec ID                                 : S_TEXT/UTF8
  131. Codec ID/Info                            : UTF-8 Plain Text
  132. Duration                                 : 1 h 36 min
  133. Bit rate                                 : 1 b/s
  134. Count of elements                        : 29
  135. Stream size                              : 871 Bytes (0%)
  136. Title                                    : French [Forced]
  137. Language                                 : French
  138. Default                                  : No
  139. Forced                                   : Yes
  140. Text #8
  141. ID                                       : 10
  142. Format                                   : UTF-8
  143. Codec ID                                 : S_TEXT/UTF8
  144. Codec ID/Info                            : UTF-8 Plain Text
  145. Duration                                 : 1 h 36 min
  146. Bit rate                                 : 67 b/s
  147. Count of elements                        : 1587
  148. Stream size                              : 48.2 KiB (0%)
  149. Title                                    : French
  150. Language                                 : French
  151. Default                                  : No
  152. Forced                                   : No
  153. Text #9
  154. ID                                       : 11
  155. Format                                   : UTF-8
  156. Codec ID                                 : S_TEXT/UTF8
  157. Codec ID/Info                            : UTF-8 Plain Text
  158. Duration                                 : 1 h 36 min
  159. Bit rate                                 : 1 b/s
  160. Count of elements                        : 32
  161. Stream size                              : 937 Bytes (0%)
  162. Title                                    : German [Forced]
  163. Language                                 : German
  164. Default                                  : No
  165. Forced                                   : Yes
  166. Text #10
  167. ID                                       : 12
  168. Format                                   : UTF-8
  169. Codec ID                                 : S_TEXT/UTF8
  170. Codec ID/Info                            : UTF-8 Plain Text
  171. Duration                                 : 1 h 36 min
  172. Bit rate                                 : 67 b/s
  173. Count of elements                        : 1708
  174. Stream size                              : 47.9 KiB (0%)
  175. Title                                    : German
  176. Language                                 : German
  177. Default                                  : No
  178. Forced                                   : No
  179. Text #11
  180. ID                                       : 13
  181. Format                                   : UTF-8
  182. Codec ID                                 : S_TEXT/UTF8
  183. Codec ID/Info                            : UTF-8 Plain Text
  184. Duration                                 : 1 h 36 min
  185. Bit rate                                 : 1 b/s
  186. Count of elements                        : 28
  187. Stream size                              : 763 Bytes (0%)
  188. Title                                    : Italian [Forced]
  189. Language                                 : Italian
  190. Default                                  : No
  191. Forced                                   : Yes
  192. Text #12
  193. ID                                       : 14
  194. Format                                   : UTF-8
  195. Codec ID                                 : S_TEXT/UTF8
  196. Codec ID/Info                            : UTF-8 Plain Text
  197. Duration                                 : 1 h 37 min
  198. Bit rate                                 : 66 b/s
  199. Count of elements                        : 1683
  200. Stream size                              : 47.0 KiB (0%)
  201. Title                                    : Italian
  202. Language                                 : Italian
  203. Default                                  : No
  204. Forced                                   : No
  205. Text #13
  206. ID                                       : 15
  207. Format                                   : UTF-8
  208. Codec ID                                 : S_TEXT/UTF8
  209. Codec ID/Info                            : UTF-8 Plain Text
  210. Duration                                 : 1 h 36 min
  211. Bit rate                                 : 67 b/s
  212. Count of elements                        : 1580
  213. Stream size                              : 48.0 KiB (0%)
  214. Title                                    : Portuguese
  215. Language                                 : Portuguese
  216. Default                                  : No
  217. Forced                                   : No
  218. Text #14
  219. ID                                       : 16
  220. Format                                   : UTF-8
  221. Codec ID                                 : S_TEXT/UTF8
  222. Codec ID/Info                            : UTF-8 Plain Text
  223. Duration                                 : 1 h 36 min
  224. Bit rate                                 : 1 b/s
  225. Count of elements                        : 31
  226. Stream size                              : 784 Bytes (0%)
  227. Title                                    : Brazilian Portuguese [Forced]
  228. Language                                 : Portuguese
  229. Default                                  : No
  230. Forced                                   : Yes
  231. Text #15
  232. ID                                       : 17
  233. Format                                   : UTF-8
  234. Codec ID                                 : S_TEXT/UTF8
  235. Codec ID/Info                            : UTF-8 Plain Text
  236. Duration                                 : 1 h 36 min
  237. Bit rate                                 : 65 b/s
  238. Count of elements                        : 1366
  239. Stream size                              : 46.3 KiB (0%)
  240. Title                                    : Brazilian Portuguese
  241. Language                                 : Portuguese
  242. Default                                  : No
  243. Forced                                   : No
  244. Text #16
  245. ID                                       : 18
  246. Format                                   : UTF-8
  247. Codec ID                                 : S_TEXT/UTF8
  248. Codec ID/Info                            : UTF-8 Plain Text
  249. Duration                                 : 1 h 28 min
  250. Bit rate                                 : 0 b/s
  251. Count of elements                        : 6
  252. Stream size                              : 165 Bytes (0%)
  253. Title                                    : Polish [Forced]
  254. Language                                 : Polish
  255. Default                                  : No
  256. Forced                                   : Yes
  257. Text #17
  258. ID                                       : 19
  259. Format                                   : UTF-8
  260. Codec ID                                 : S_TEXT/UTF8
  261. Codec ID/Info                            : UTF-8 Plain Text
  262. Duration                                 : 1 h 36 min
  263. Bit rate                                 : 63 b/s
  264. Count of elements                        : 1664
  265. Stream size                              : 44.9 KiB (0%)
  266. Title                                    : Polish
  267. Language                                 : Polish
  268. Default                                  : No
  269. Forced                                   : No
  270. Text #18
  271. ID                                       : 20
  272. Format                                   : UTF-8
  273. Codec ID                                 : S_TEXT/UTF8
  274. Codec ID/Info                            : UTF-8 Plain Text
  275. Duration                                 : 1 h 26 min
  276. Bit rate                                 : 1 b/s
  277. Count of elements                        : 30
  278. Stream size                              : 849 Bytes (0%)
  279. Title                                    : Turkish [Forced]
  280. Language                                 : Turkish
  281. Default                                  : No
  282. Forced                                   : Yes
  283. Text #19
  284. ID                                       : 21
  285. Format                                   : UTF-8
  286. Codec ID                                 : S_TEXT/UTF8
  287. Codec ID/Info                            : UTF-8 Plain Text
  288. Duration                                 : 1 h 32 min
  289. Bit rate                                 : 65 b/s
  290. Count of elements                        : 1705
  291. Stream size                              : 44.2 KiB (0%)
  292. Title                                    : Turkish
  293. Language                                 : Turkish
  294. Default                                  : No
  295. Forced                                   : No
  296. Text #20
  297. ID                                       : 22
  298. Format                                   : UTF-8
  299. Codec ID                                 : S_TEXT/UTF8
  300. Codec ID/Info                            : UTF-8 Plain Text
  301. Duration                                 : 1 h 36 min
  302. Bit rate                                 : 64 b/s
  303. Count of elements                        : 1693
  304. Stream size                              : 46.0 KiB (0%)
  305. Title                                    : Swedish
  306. Language                                 : Swedish
  307. Default                                  : No
  308. Forced                                   : No
  309. Text #21
  310. ID                                       : 23
  311. Format                                   : UTF-8
  312. Codec ID                                 : S_TEXT/UTF8
  313. Codec ID/Info                            : UTF-8 Plain Text
  314. Duration                                 : 1 h 36 min
  315. Bit rate                                 : 59 b/s
  316. Count of elements                        : 1364
  317. Stream size                              : 42.0 KiB (0%)
  318. Title                                    : Danish
  319. Language                                 : Danish
  320. Default                                  : No
  321. Forced                                   : No
  322. Text #22
  323. ID                                       : 24
  324. Format                                   : UTF-8
  325. Codec ID                                 : S_TEXT/UTF8
  326. Codec ID/Info                            : UTF-8 Plain Text
  327. Duration                                 : 1 h 36 min
  328. Bit rate                                 : 68 b/s
  329. Count of elements                        : 1696
  330. Stream size                              : 48.7 KiB (0%)
  331. Title                                    : Finnish
  332. Language                                 : Finnish
  333. Default                                  : No
  334. Forced                                   : No
  335. Text #23
  336. ID                                       : 25
  337. Format                                   : UTF-8
  338. Codec ID                                 : S_TEXT/UTF8
  339. Codec ID/Info                            : UTF-8 Plain Text
  340. Duration                                 : 1 h 32 min
  341. Bit rate                                 : 64 b/s
  342. Count of elements                        : 1244
  343. Stream size                              : 43.7 KiB (0%)
  344. Title                                    : Dutch
  345. Language                                 : Dutch
  346. Default                                  : No
  347. Forced                                   : No
  348. Text #24
  349. ID                                       : 26
  350. Format                                   : UTF-8
  351. Codec ID                                 : S_TEXT/UTF8
  352. Codec ID/Info                            : UTF-8 Plain Text
  353. Duration                                 : 1 h 36 min
  354. Bit rate                                 : 60 b/s
  355. Count of elements                        : 1479
  356. Stream size                              : 43.1 KiB (0%)
  357. Title                                    : Norwegian
  358. Language                                 : Norwegian
  359. Default                                  : No
  360. Forced                                   : No
  361. Text #25
  362. ID                                       : 27
  363. Format                                   : UTF-8
  364. Codec ID                                 : S_TEXT/UTF8
  365. Codec ID/Info                            : UTF-8 Plain Text
  366. Duration                                 : 1 h 36 min
  367. Bit rate                                 : 109 b/s
  368. Count of elements                        : 1714
  369. Stream size                              : 77.6 KiB (0%)
  370. Title                                    : Russian
  371. Language                                 : Russian
  372. Default                                  : No
  373. Forced                                   : No
  374. Text #26
  375. ID                                       : 28
  376. Format                                   : UTF-8
  377. Codec ID                                 : S_TEXT/UTF8
  378. Codec ID/Info                            : UTF-8 Plain Text
  379. Duration                                 : 1 h 36 min
  380. Bit rate                                 : 1 b/s
  381. Count of elements                        : 28
  382. Stream size                              : 837 Bytes (0%)
  383. Title                                    : Hungarian [Forced]
  384. Language                                 : Hungarian
  385. Default                                  : No
  386. Forced                                   : Yes
  387. Text #27
  388. ID                                       : 29
  389. Format                                   : UTF-8
  390. Codec ID                                 : S_TEXT/UTF8
  391. Codec ID/Info                            : UTF-8 Plain Text
  392. Duration                                 : 1 h 36 min
  393. Bit rate                                 : 67 b/s
  394. Count of elements                        : 1703
  395. Stream size                              : 48.2 KiB (0%)
  396. Title                                    : Hungarian
  397. Language                                 : Hungarian
  398. Default                                  : No
  399. Forced                                   : No
  400. Text #28
  401. ID                                       : 30
  402. Format                                   : UTF-8
  403. Codec ID                                 : S_TEXT/UTF8
  404. Codec ID/Info                            : UTF-8 Plain Text
  405. Duration                                 : 1 h 36 min
  406. Bit rate                                 : 104 b/s
  407. Count of elements                        : 1664
  408. Stream size                              : 74.4 KiB (0%)
  409. Title                                    : Greek
  410. Language                                 : Greek
  411. Default                                  : No
  412. Forced                                   : No
  413. Text #29
  414. ID                                       : 31
  415. Format                                   : UTF-8
  416. Codec ID                                 : S_TEXT/UTF8
  417. Codec ID/Info                            : UTF-8 Plain Text
  418. Duration                                 : 1 h 36 min
  419. Bit rate                                 : 109 b/s
  420. Count of elements                        : 1714
  421. Stream size                              : 77.5 KiB (0%)
  422. Title                                    : Hebrew
  423. Language                                 : Hebrew
  424. Default                                  : No
  425. Forced                                   : No
  426. Text #30
  427. ID                                       : 32
  428. Format                                   : UTF-8
  429. Codec ID                                 : S_TEXT/UTF8
  430. Codec ID/Info                            : UTF-8 Plain Text
  431. Duration                                 : 1 h 33 min
  432. Bit rate                                 : 2 b/s
  433. Count of elements                        : 36
  434. Stream size                              : 1.90 KiB (0%)
  435. Title                                    : Arabic [Forced]
  436. Language                                 : Arabic
  437. Default                                  : No
  438. Forced                                   : Yes
  439. Text #31
  440. ID                                       : 33
  441. Format                                   : UTF-8
  442. Codec ID                                 : S_TEXT/UTF8
  443. Codec ID/Info                            : UTF-8 Plain Text
  444. Duration                                 : 1 h 33 min
  445. Bit rate                                 : 125 b/s
  446. Count of elements                        : 1699
  447. Stream size                              : 85.8 KiB (0%)
  448. Title                                    : Arabic
  449. Language                                 : Arabic
  450. Default                                  : No
  451. Forced                                   : No
  452. Text #32
  453. ID                                       : 34
  454. Format                                   : UTF-8
  455. Codec ID                                 : S_TEXT/UTF8
  456. Codec ID/Info                            : UTF-8 Plain Text
  457. Duration                                 : 1 h 32 min
  458. Bit rate                                 : 73 b/s
  459. Count of elements                        : 1628
  460. Stream size                              : 49.6 KiB (0%)
  461. Title                                    : Romanian
  462. Language                                 : Romanian
  463. Default                                  : No
  464. Forced                                   : No
  465. Text #33
  466. ID                                       : 35
  467. Format                                   : UTF-8
  468. Codec ID                                 : S_TEXT/UTF8
  469. Codec ID/Info                            : UTF-8 Plain Text
  470. Duration                                 : 1 h 36 min
  471. Bit rate                                 : 66 b/s
  472. Count of elements                        : 1671
  473. Stream size                              : 47.0 KiB (0%)
  474. Title                                    : Czech
  475. Language                                 : Czech
  476. Default                                  : No
  477. Forced                                   : No
  478. Text #34
  479. ID                                       : 36
  480. Format                                   : UTF-8
  481. Codec ID                                 : S_TEXT/UTF8
  482. Codec ID/Info                            : UTF-8 Plain Text
  483. Duration                                 : 1 h 36 min
  484. Bit rate                                 : 3 b/s
  485. Count of elements                        : 35
  486. Stream size                              : 2.43 KiB (0%)
  487. Title                                    : Hindi [Forced]
  488. Language                                 : Hindi
  489. Default                                  : No
  490. Forced                                   : Yes
  491. Text #35
  492. ID                                       : 37
  493. Format                                   : UTF-8
  494. Codec ID                                 : S_TEXT/UTF8
  495. Codec ID/Info                            : UTF-8 Plain Text
  496. Duration                                 : 1 h 36 min
  497. Bit rate                                 : 167 b/s
  498. Count of elements                        : 1714
  499. Stream size                              : 119 KiB (0%)
  500. Title                                    : Hindi
  501. Language                                 : Hindi
  502. Default                                  : No
  503. Forced                                   : No
  504. Text #36
  505. ID                                       : 38
  506. Format                                   : UTF-8
  507. Codec ID                                 : S_TEXT/UTF8
  508. Codec ID/Info                            : UTF-8 Plain Text
  509. Duration                                 : 1 h 36 min
  510. Bit rate                                 : 57 b/s
  511. Count of elements                        : 1538
  512. Stream size                              : 40.7 KiB (0%)
  513. Title                                    : Indonesian
  514. Language                                 : Indonesian
  515. Default                                  : No
  516. Forced                                   : No
  517. Text #37
  518. ID                                       : 39
  519. Format                                   : UTF-8
  520. Codec ID                                 : S_TEXT/UTF8
  521. Codec ID/Info                            : UTF-8 Plain Text
  522. Duration                                 : 1 h 36 min
  523. Bit rate                                 : 92 b/s
  524. Count of elements                        : 1713
  525. Stream size                              : 65.8 KiB (0%)
  526. Title                                    : Vietnamese
  527. Language                                 : Vietnamese
  528. Default                                  : No
  529. Forced                                   : No
  530. Text #38
  531. ID                                       : 40
  532. Format                                   : UTF-8
  533. Codec ID                                 : S_TEXT/UTF8
  534. Codec ID/Info                            : UTF-8 Plain Text
  535. Duration                                 : 1 h 36 min
  536. Bit rate                                 : 182 b/s
  537. Count of elements                        : 1718
  538. Stream size                              : 130 KiB (0%)
  539. Title                                    : Thai
  540. Language                                 : Thai
  541. Default                                  : No
  542. Forced                                   : No
  543. Text #39
  544. ID                                       : 41
  545. Format                                   : UTF-8
  546. Codec ID                                 : S_TEXT/UTF8
  547. Codec ID/Info                            : UTF-8 Plain Text
  548. Duration                                 : 1 h 36 min
  549. Bit rate                                 : 1 b/s
  550. Count of elements                        : 33
  551. Stream size                              : 1.13 KiB (0%)
  552. Title                                    : Korean [Forced]
  553. Language                                 : Korean
  554. Default                                  : No
  555. Forced                                   : Yes
  556. Text #40
  557. ID                                       : 42
  558. Format                                   : UTF-8
  559. Codec ID                                 : S_TEXT/UTF8
  560. Codec ID/Info                            : UTF-8 Plain Text
  561. Duration                                 : 1 h 36 min
  562. Bit rate                                 : 80 b/s
  563. Count of elements                        : 1654
  564. Stream size                              : 57.1 KiB (0%)
  565. Title                                    : Korean
  566. Language                                 : Korean
  567. Default                                  : No
  568. Forced                                   : No
  569. Text #41
  570. ID                                       : 43
  571. Format                                   : UTF-8
  572. Codec ID                                 : S_TEXT/UTF8
  573. Codec ID/Info                            : UTF-8 Plain Text
  574. Duration                                 : 1 h 36 min
  575. Bit rate                                 : 1 b/s
  576. Count of elements                        : 35
  577. Stream size                              : 1.19 KiB (0%)
  578. Title                                    : Chinese (Simplified) [Forced]
  579. Language                                 : Chinese
  580. Default                                  : No
  581. Forced                                   : Yes
  582. Text #42
  583. ID                                       : 44
  584. Format                                   : UTF-8
  585. Codec ID                                 : S_TEXT/UTF8
  586. Codec ID/Info                            : UTF-8 Plain Text
  587. Duration                                 : 1 h 36 min
  588. Bit rate                                 : 64 b/s
  589. Count of elements                        : 1716
  590. Stream size                              : 46.1 KiB (0%)
  591. Title                                    : Chinese (Simplified)
  592. Language                                 : Chinese
  593. Default                                  : No
  594. Forced                                   : No
  595. Text #43
  596. ID                                       : 45
  597. Format                                   : UTF-8
  598. Codec ID                                 : S_TEXT/UTF8
  599. Codec ID/Info                            : UTF-8 Plain Text
  600. Duration                                 : 1 h 36 min
  601. Bit rate                                 : 73 b/s
  602. Count of elements                        : 1709
  603. Stream size                              : 51.8 KiB (0%)
  604. Title                                    : Chinese (Traditional)
  605. Language                                 : Chinese
  606. Default                                  : No
  607. Forced                                   : No
  608. Text #44
  609. ID                                       : 46
  610. Format                                   : UTF-8
  611. Codec ID                                 : S_TEXT/UTF8
  612. Codec ID/Info                            : UTF-8 Plain Text
  613. Duration                                 : 1 h 36 min
  614. Bit rate                                 : 1 b/s
  615. Count of elements                        : 36
  616. Stream size                              : 1.30 KiB (0%)
  617. Title                                    : Japanese [Forced]
  618. Language                                 : Japanese
  619. Default                                  : No
  620. Forced                                   : Yes
  621. Text #45
  622. ID                                       : 47
  623. Format                                   : UTF-8
  624. Codec ID                                 : S_TEXT/UTF8
  625. Codec ID/Info                            : UTF-8 Plain Text
  626. Duration                                 : 1 h 36 min
  627. Bit rate                                 : 67 b/s
  628. Count of elements                        : 1649
  629. Stream size                              : 47.9 KiB (0%)
  630. Title                                    : Japanese
  631. Language                                 : Japanese
  632. Default                                  : No
  633. Forced                                   : No
复制代码






                                       
                                       

                                       
                                       
                                       




回复

使用道具 举报

懒得打字嘛,点击右侧快捷回复 【右侧内容,后台自定义】
您需要登录后才可以回帖 登录 | 立即加入

本版积分规则

Archiver|小黑屋| 蓝光电影网 |网站地图

Copyright © 2021 Comsenz Inc. Powered by 蓝光电影网

蓝光电影网

本站内容由用户自主分享和转载自互联网,转载目的在于传递更多信息,并不代表本网赞同其观点和对其真实性负责。

如有侵权、违反国家法律政策行为,请联系我们,我们会第一时间及时清除和处理!

举报反馈邮箱:[email protected]

快速回复 返回顶部 返回列表