找回密码

蓝光电影网

查看: 13|回复: 0

[爱情] 美丽吸血鬼 Beautiful.Vampire.2018.KOREAN.1080p.AMZN.WEBRip.DDP5.1.x264-NTG 3.82GB

[复制链接]
蓝光币
515
发表于 2019-8-22 00:10:07 | 显示全部楼层 |阅读模式


◎译  名 美丽吸血鬼 / Beautiful Vampire / 吸血鬼罗曼史(台) / 标致的吸血鬼
◎片  名 ??? ????
◎年  代 2018
◎产  地 韩国
◎类  别 恋爱 / 奇异
◎语  言 韩语
◎上映日期 2018-08(富川电影节)
◎IMDb评分  5.8/10 from 80 users
◎IMDb链接  http://www.imdb.com/title/tt9089908
◎豆瓣评分 5.8/10 from 105 users
◎豆瓣链接 https://movie.douban.com/subject/30272750/
◎片  长 72分钟
◎导  演 Eun-kyung Jung
◎主  演 郑妍周 Yeon-Joo Jung
       宋江 Kang Song
       朴俊勉 Park Joon-myun
       李龙女 Yong-nyeo Lee

◎标  签 吸血鬼 | 韩国电影 | 韩国 | 都雅的电影 | 恋爱 | 奇异 | 电影 | 剧情
◎简  介  
  活了500多年的美麗吸血鬼「蘭」,像個普通人一樣的生活:經營一家小小的美妝外型工作室、常日以動物血液維生,試圖融入人類社會。某天,新房東忽然出現並告诉她房租將漲3倍,讓她傷透腦筋;同時,蘭相逢了一位男人,他身上那股熟悉的香氣讓蘭想起悲傷的過往,而這位男人正是新房東的兒子!當他們喜歡上相互,蘭不僅要面對房東的各式刁難,更要抵抗日漸強烈的對人類血液的渴望…
  1. Video
  2. ID                                       : 1
  3. Format                                   : AVC
  4. Format/Info                              : Advanced Video Codec
  5. Format profile                           : [email protected]
  6. Format settings                          : CABAC / 4 Ref Frames
  7. Format settings, CABAC                   : Yes
  8. Format settings, Reference frames        : 4 frames
  9. Codec ID                                 : V_MPEG4/ISO/AVC
  10. Duration                                 : 1 h 13 min
  11. Bit rate mode                            : Constant
  12. Bit rate                                 : 6 850 kb/s
  13. Nominal bit rate                         : 10 000 kb/s
  14. Width                                    : 1 920 pixels
  15. Height                                   : 1 080 pixels
  16. Display aspect ratio                     : 16:9
  17. Frame rate mode                          : Constant
  18. Frame rate                               : 23.976 (24000/1001) FPS
  19. Color space                              : YUV
  20. Chroma subsampling                       : 4:2:0
  21. Bit depth                                : 8 bits
  22. Scan type                                : Progressive
  23. Bits/(Pixel*Frame)                       : 0.138
  24. Stream size                              : 3.49 GiB (91%)
  25. Default                                  : Yes
  26. Forced                                   : No
  27. Color range                              : Limited
  28. Color primaries                          : BT.709
  29. Transfer characteristics                 : BT.709
  30. Matrix coefficients                      : BT.709
  31. Audio
  32. ID                                       : 2
  33. Format                                   : E-AC-3
  34. Format/Info                              : Enhanced AC-3
  35. Commercial name                          : Dolby Digital Plus
  36. Codec ID                                 : A_EAC3
  37. Duration                                 : 1 h 13 min
  38. Bit rate mode                            : Constant
  39. Bit rate                                 : 640 kb/s
  40. Channel(s)                               : 6 channels
  41. Channel layout                           : L R C LFE Ls Rs
  42. Sampling rate                            : 48.0 kHz
  43. Frame rate                               : 31.250 FPS (1536 SPF)
  44. Compression mode                         : Lossy
  45. Stream size                              : 334 MiB (9%)
  46. Service kind                             : Complete Main
  47. Default                                  : Yes
  48. Forced                                   : No
  49. Text #1
  50. ID                                       : 3
  51. Format                                   : UTF-8
  52. Codec ID                                 : S_TEXT/UTF8
  53. Codec ID/Info                            : UTF-8 Plain Text
  54. Duration                                 : 1 h 10 min
  55. Bit rate                                 : 30 b/s
  56. Count of elements                        : 530
  57. Stream size                              : 15.9 KiB (0%)
  58. Language                                 : English
  59. Default                                  : No
  60. Forced                                   : No
  61. Text #2
  62. ID                                       : 4
  63. Format                                   : UTF-8
  64. Codec ID                                 : S_TEXT/UTF8
  65. Codec ID/Info                            : UTF-8 Plain Text
  66. Duration                                 : 1 h 10 min
  67. Bit rate                                 : 30 b/s
  68. Count of elements                        : 530
  69. Stream size                              : 15.9 KiB (0%)
  70. Title                                    : SDH
  71. Language                                 : English
  72. Default                                  : No
  73. Forced                                   : No
复制代码






                                       
                                       

                                       
                                       
                                       




回复

使用道具 举报

懒得打字嘛,点击右侧快捷回复 【右侧内容,后台自定义】
您需要登录后才可以回帖 登录 | 立即加入

本版积分规则

Archiver|小黑屋| 蓝光电影网 |网站地图

Copyright © 2021 Comsenz Inc. Powered by 蓝光电影网

蓝光电影网

本站内容由用户自主分享和转载自互联网,转载目的在于传递更多信息,并不代表本网赞同其观点和对其真实性负责。

如有侵权、违反国家法律政策行为,请联系我们,我们会第一时间及时清除和处理!

举报反馈邮箱:[email protected]

快速回复 返回顶部 返回列表