找回密码

蓝光电影网

查看: 14|回复: 0

[爱情] 巴黎愛情鎖 Love.Locks.2017.1080p.AMZN.WEBRip.DDP5.1.x264-monkee 4.08GB

[复制链接]
蓝光币
511
发表于 2019-8-21 06:20:33 | 显示全部楼层 |阅读模式


◎译  名 巴黎愛情鎖
◎片  名 Love Locks (2017)
◎年  代 2017
◎产  地 美国
◎类  别 恋爱
◎语  言 英语 / 法语
◎上映日期 2017-01-28(美国)
◎IMDb评分  6.5/10 from 823 users
◎IMDb链接  http://www.imdb.com/title/tt6382412
◎豆瓣评分 0/10 from 0 users
◎豆瓣链接 https://movie.douban.com/subject/30145920/
◎导  演 Martin Wood
◎编  剧 Teena Booth / John Tinker
◎主  演 丽贝卡·罗梅恩 Rebecca Romijn
       杰瑞·奥康奈尔 Jerry O'Connell
       布鲁斯·戴维森 Bruce Davison
       大卫·朱利安·赫什 David Julian Hirsh
       乔斯林·休顿 Jocelyn Hudon
       Benjamin Sutherland
       Linda Smith

◎标  签 愛情 | 番笕劇 | 巴黎 | Hallmark
◎简  介  
  Twenty years after she was last in Paris, a woman returns to the City of Light, where she reconnects with her college boyfriend and first love.
  1. Video
  2. ID                                       : 1
  3. Format                                   : AVC
  4. Format/Info                              : Advanced Video Codec
  5. Format profile                           : [email protected]
  6. Format settings                          : CABAC / 4 Ref Frames
  7. Format settings, CABAC                   : Yes
  8. Format settings, Reference frames        : 4 frames
  9. Codec ID                                 : V_MPEG4/ISO/AVC
  10. Duration                                 : 1 h 35 min
  11. Bit rate                                 : 5 474 kb/s
  12. Width                                    : 1 920 pixels
  13. Height                                   : 1 080 pixels
  14. Display aspect ratio                     : 16:9
  15. Frame rate mode                          : Constant
  16. Frame rate                               : 23.976 (24000/1001) FPS
  17. Color space                              : YUV
  18. Chroma subsampling                       : 4:2:0
  19. Bit depth                                : 8 bits
  20. Scan type                                : Progressive
  21. Bits/(Pixel*Frame)                       : 0.110
  22. Stream size                              : 3.65 GiB (90%)
  23. Default                                  : Yes
  24. Forced                                   : No
  25. Color range                              : Limited
  26. Color primaries                          : BT.709
  27. Transfer characteristics                 : BT.709
  28. Matrix coefficients                      : BT.709
  29. Audio
  30. ID                                       : 2
  31. Format                                   : E-AC-3
  32. Format/Info                              : Enhanced AC-3
  33. Commercial name                          : Dolby Digital Plus
  34. Codec ID                                 : A_EAC3
  35. Duration                                 : 1 h 35 min
  36. Bit rate mode                            : Constant
  37. Bit rate                                 : 640 kb/s
  38. Channel(s)                               : 6 channels
  39. Channel layout                           : L R C LFE Ls Rs
  40. Sampling rate                            : 48.0 kHz
  41. Frame rate                               : 31.250 FPS (1536 SPF)
  42. Compression mode                         : Lossy
  43. Stream size                              : 437 MiB (10%)
  44. Language                                 : English
  45. Service kind                             : Complete Main
  46. Default                                  : No
  47. Forced                                   : No
复制代码






                                       
                                       

                                       
                                       
                                       




回复

使用道具 举报

懒得打字嘛,点击右侧快捷回复 【右侧内容,后台自定义】
您需要登录后才可以回帖 登录 | 立即加入

本版积分规则

Archiver|小黑屋| 蓝光电影网 |网站地图

Copyright © 2021 Comsenz Inc. Powered by 蓝光电影网

蓝光电影网

本站内容由用户自主分享和转载自互联网,转载目的在于传递更多信息,并不代表本网赞同其观点和对其真实性负责。

如有侵权、违反国家法律政策行为,请联系我们,我们会第一时间及时清除和处理!

举报反馈邮箱:[email protected]

快速回复 返回顶部 返回列表