找回密码

蓝光电影网

查看: 27|回复: 0

[爱情] 北京爱情故事 Beijing.Love.Story.2014.CHINESE.1080p.NF.WEBRip.DDP5.1.x264-Ao 3.95GB

[复制链接]
蓝光币
511
发表于 2019-7-1 09:20:06 | 显示全部楼层 |阅读模式


◎译  名 BeiJing Love Story / 北京恋爱故事电影版 / 北爱电影版
◎片  名 北京恋爱故事
◎年  代 2014
◎产  地 中国大陆
◎类  别 恋爱
◎语  言 汉语普通话 / 英语
◎上映日期 2014-02-14(中国大陆)
◎IMDb评分  5.7/10 from 322 users
◎IMDb链接  http://www.imdb.com/title/tt3505950
◎豆瓣评分 6.1/10 from 139126 users
◎豆瓣链接 https://movie.douban.com/subject/24736566/
◎片  长 121分钟
◎导  演 陈思成 Sicheng Chen
◎编  剧 陈思成 Sicheng Chen
◎主  演 梁家辉 Tony Leung Ka Fai
      刘嘉玲 Carina Lau
      王学兵 Xuebing Wang
      余男 Nan Yu
      陈思诚 Sicheng Chen
      佟丽娅 Liya Tong
      王庆祥 Qingxiang Wang
      斯琴高娃 Stchingowa
      刘昊然 Haoran Liu
      欧阳娜娜 Nana Ouyang
      金燕玲 Elaine Jin
      耿乐 Le Geng
      郭京飞 Jingfei Guo

◎标  签 恋爱 | 北京恋爱故事 | 陈思诚 | 2014 | 中国电影 | 中国 | 大陆 | 佟丽娅
◎简  介  
  本片由5段故事组成。北漂屌丝男陈锋(陈思诚 饰)在好友(郭京飞 饰)的离别单身派对上对白领沈彦(佟丽娅 饰)一见钟情,随后两人展开了热恋,不意未几后两人未婚先孕,二人预备成婚但却遭到了沈彦母亲的否决,此时沈的有钱前男友洪江(耿乐 饰)又再次出现了。与此同时陈锋的老板 吴峥(王学兵 饰)由于出轨被妻子张蕾(余男 饰)发现,愤慨的张蕾深夜画着浓妆走出了家门……张蕾的老板刘辉(梁家辉 饰)与佳玲(刘嘉玲 饰)奥秘来到希腊偷情,却不意两人由于定见分歧几乎吵翻。刘辉的女儿阳阳(欧阳娜娜 饰)发现隔邻班的男生(刘昊然 饰)经常跟自己搭乘同一辆车回家,意外熟悉后两人无话不谈,奥妙的豪情在两民气中发生。男孩的姥姥(斯琴高娃 饰)得了绝症,悲观的她决议给老伴(王庆祥 饰)找一个新的朋友辅佐他走过余生,一位海归老太太(金燕玲 饰)走进了老两口的生活……
◎获奖情况  
  第12届中国长春电影节(2014)
  金鹿奖 最好青年导演童贞作奖 陈思诚
  第21届北京大门生电影节(2014)
  最好童贞作奖 陈思诚
  最好新人奖(提名) 刘昊然
  第1届豆瓣电影年度榜单(2014)
  2月最受关注电影(提名)

  1. Video
  2. ID                                       : 1
  3. Format                                   : AVC
  4. Format/Info                              : Advanced Video Codec
  5. Format profile                           : [email protected]
  6. Format settings                          : CABAC / 3 Ref Frames
  7. Format settings, CABAC                   : Yes
  8. Format settings, ReFrames                : 3 frames
  9. Codec ID                                 : V_MPEG4/ISO/AVC
  10. Duration                                 : 2 h 1 min
  11. Bit rate mode                            : Variable
  12. Bit rate                                 : 4 020 kb/s
  13. Maximum bit rate                         : 6 030 kb/s
  14. Width                                    : 1 920 pixels
  15. Height                                   : 1 080 pixels
  16. Display aspect ratio                     : 16:9
  17. Frame rate mode                          : Constant
  18. Frame rate                               : 24.000 FPS
  19. Color space                              : YUV
  20. Chroma subsampling                       : 4:2:0
  21. Bit depth                                : 8 bits
  22. Scan type                                : Progressive
  23. Bits/(Pixel*Frame)                       : 0.081
  24. Stream size                              : 3.41 GiB (86%)
  25. Writing library                          : x264 core 148 r2715 7e75228
  26. Encoding settings                        : cabac=1 / ref=3 / deblock=1:0:0 / analyse=0x1:0x111 / me=umh / subme=10 / psy=1 / psy_rd=1.00:0.00 / mixed_ref=1 / me_range=24 / chroma_me=1 / trellis=2 / 8x8dct=0 / cqm=0 / deadzone=21,11 / fast_pskip=1 / chroma_qp_offset=-2 / threads=8 / lookahead_threads=1 / sliced_threads=0 / nr=0 / decimate=1 / interlaced=0 / bluray_compat=0 / stitchable=1 / constrained_intra=0 / bframes=2 / b_pyramid=0 / b_adapt=2 / b_bias=0 / direct=3 / weightb=1 / open_gop=0 / weightp=2 / keyint=48 / keyint_min=25 / scenecut=0 / intra_refresh=0 / rc_lookahead=48 / rc=2pass / mbtree=1 / bitrate=4020 / ratetol=1.0 / qcomp=0.50 / qpmin=6 / qpmax=51 / qpstep=4 / cplxblur=20.0 / qblur=0.5 / vbv_maxrate=6030 / vbv_bufsize=8040 / nal_hrd=vbr / filler=0 / ip_ratio=1.40 / aq=1:1.00
  27. Default                                  : Yes
  28. Forced                                   : No
  29. Audio
  30. ID                                       : 2
  31. Format                                   : E-AC-3
  32. Format/Info                              : Enhanced AC-3
  33. Commercial name                          : Dolby Digital Plus
  34. Codec ID                                 : A_EAC3
  35. Duration                                 : 2 h 1 min
  36. Bit rate mode                            : Constant
  37. Bit rate                                 : 640 kb/s
  38. Channel(s)                               : 6 channels
  39. Channel layout                           : L R C LFE Ls Rs
  40. Sampling rate                            : 48.0 kHz
  41. Frame rate                               : 31.250 FPS (1536 SPF)
  42. Compression mode                         : Lossy
  43. Stream size                              : 557 MiB (14%)
  44. Service kind                             : Complete Main
  45. Default                                  : Yes
  46. Forced                                   : No
  47. Text #1
  48. ID                                       : 3
  49. Format                                   : UTF-8
  50. Codec ID                                 : S_TEXT/UTF8
  51. Codec ID/Info                            : UTF-8 Plain Text
  52. Duration                                 : 1 h 56 min
  53. Bit rate                                 : 44 b/s
  54. Count of elements                        : 1248
  55. Stream size                              : 37.7 KiB (0%)
  56. Title                                    : English
  57. Language                                 : English
  58. Default                                  : No
  59. Forced                                   : No
  60. Text #2
  61. ID                                       : 4
  62. Format                                   : UTF-8
  63. Codec ID                                 : S_TEXT/UTF8
  64. Codec ID/Info                            : UTF-8 Plain Text
  65. Duration                                 : 1 h 59 min
  66. Bit rate                                 : 43 b/s
  67. Count of elements                        : 1269
  68. Stream size                              : 38.2 KiB (0%)
  69. Title                                    : Indonesian
  70. Language                                 : Indonesian
  71. Default                                  : No
  72. Forced                                   : No
  73. Text #3
  74. ID                                       : 5
  75. Format                                   : UTF-8
  76. Codec ID                                 : S_TEXT/UTF8
  77. Codec ID/Info                            : UTF-8 Plain Text
  78. Duration                                 : 1 h 56 min
  79. Bit rate                                 : 38 b/s
  80. Count of elements                        : 1297
  81. Stream size                              : 33.0 KiB (0%)
  82. Title                                    : Simplified Chinese
  83. Default                                  : No
  84. Forced                                   : No
  85. Text #4
  86. ID                                       : 6
  87. Format                                   : UTF-8
  88. Codec ID                                 : S_TEXT/UTF8
  89. Codec ID/Info                            : UTF-8 Plain Text
  90. Duration                                 : 1 h 56 min
  91. Bit rate                                 : 39 b/s
  92. Count of elements                        : 1304
  93. Stream size                              : 33.9 KiB (0%)
  94. Title                                    : Traditional Chinese
  95. Default                                  : No
  96. Forced                                   : No
复制代码






                                       
                                       

                                       
                                       
                                       




回复

使用道具 举报

懒得打字嘛,点击右侧快捷回复 【右侧内容,后台自定义】
您需要登录后才可以回帖 登录 | 立即加入

本版积分规则

Archiver|小黑屋| 蓝光电影网 |网站地图

Copyright © 2021 Comsenz Inc. Powered by 蓝光电影网

蓝光电影网

本站内容由用户自主分享和转载自互联网,转载目的在于传递更多信息,并不代表本网赞同其观点和对其真实性负责。

如有侵权、违反国家法律政策行为,请联系我们,我们会第一时间及时清除和处理!

举报反馈邮箱:[email protected]

快速回复 返回顶部 返回列表