找回密码

蓝光电影网

查看: 35|回复: 0

[爱情] 北京爱情故事 Beijing.Love.Story.2014.CHINESE.1080p.WEBRip.x264-RARBG 2.32GB

[复制链接]
蓝光币
515
发表于 2019-7-1 09:16:04 | 显示全部楼层 |阅读模式


◎译  名 BeiJing Love Story / 北京恋爱故事电影版 / 北爱电影版
◎片  名 北京恋爱故事
◎年  代 2014
◎产  地 中国大陆
◎类  别 恋爱
◎语  言 汉语普通话 / 英语
◎上映日期 2014-02-14(中国大陆)
◎IMDb评分  5.7/10 from 322 users
◎IMDb链接  http://www.imdb.com/title/tt3505950
◎豆瓣评分 6.1/10 from 139126 users
◎豆瓣链接 https://movie.douban.com/subject/24736566/
◎片  长 121分钟
◎导  演 陈思成 Sicheng Chen
◎编  剧 陈思成 Sicheng Chen
◎主  演 梁家辉 Tony Leung Ka Fai
      刘嘉玲 Carina Lau
      王学兵 Xuebing Wang
      余男 Nan Yu
      陈思诚 Sicheng Chen
      佟丽娅 Liya Tong
      王庆祥 Qingxiang Wang
      斯琴高娃 Stchingowa
      刘昊然 Haoran Liu
      欧阳娜娜 Nana Ouyang
      金燕玲 Elaine Jin
      耿乐 Le Geng
      郭京飞 Jingfei Guo

◎标  签 恋爱 | 北京恋爱故事 | 陈思诚 | 2014 | 中国电影 | 中国 | 大陆 | 佟丽娅
◎简  介  
  本片由5段故事组成。北漂屌丝男陈锋(陈思诚 饰)在好友(郭京飞 饰)的离别单身派对上对白领沈彦(佟丽娅 饰)一见钟情,随后两人展开了热恋,不意未几后两人未婚先孕,二人预备成婚但却遭到了沈彦母亲的否决,此时沈的有钱前男友洪江(耿乐 饰)又再次出现了。与此同时陈锋的老板 吴峥(王学兵 饰)由于出轨被妻子张蕾(余男 饰)发现,愤慨的张蕾深夜画着浓妆走出了家门……张蕾的老板刘辉(梁家辉 饰)与佳玲(刘嘉玲 饰)奥秘来到希腊偷情,却不意两人由于定见分歧几乎吵翻。刘辉的女儿阳阳(欧阳娜娜 饰)发现隔邻班的男生(刘昊然 饰)经常跟自己搭乘同一辆车回家,意外熟悉后两人无话不谈,奥妙的豪情在两民气中发生。男孩的姥姥(斯琴高娃 饰)得了绝症,悲观的她决议给老伴(王庆祥 饰)找一个新的朋友辅佐他走过余生,一位海归老太太(金燕玲 饰)走进了老两口的生活……
◎获奖情况  
  第12届中国长春电影节(2014)
  金鹿奖 最好青年导演童贞作奖 陈思诚
  第21届北京大门生电影节(2014)
  最好童贞作奖 陈思诚
  最好新人奖(提名) 刘昊然
  第1届豆瓣电影年度榜单(2014)
  2月最受关注电影(提名)

  1. Video
  2. ID                                       : 1
  3. Format                                   : AVC
  4. Format/Info                              : Advanced Video Codec
  5. Format profile                           : [email protected]
  6. Format settings                          : CABAC / 4 Ref Frames
  7. Format settings, CABAC                   : Yes
  8. Format settings, ReFrames                : 4 frames
  9. Codec ID                                 : avc1
  10. Codec ID/Info                            : Advanced Video Coding
  11. Duration                                 : 2 h 1 min
  12. Bit rate                                 : 2 500 kb/s
  13. Width                                    : 1 916 pixels
  14. Height                                   : 804 pixels
  15. Display aspect ratio                     : 2.40:1
  16. Frame rate mode                          : Constant
  17. Frame rate                               : 24.000 FPS
  18. Color space                              : YUV
  19. Chroma subsampling                       : 4:2:0
  20. Bit depth                                : 8 bits
  21. Scan type                                : Progressive
  22. Bits/(Pixel*Frame)                       : 0.068
  23. Stream size                              : 2.12 GiB (92%)
  24. Writing library                          : x264 core 152 r2851M ba24899
  25. Encoding settings                        : cabac=1 / ref=4 / deblock=1:-1:-1 / analyse=0x3:0x113 / me=umh / subme=9 / psy=1 / psy_rd=1.00:0.15 / mixed_ref=1 / me_range=24 / chroma_me=1 / trellis=2 / 8x8dct=1 / cqm=0 / deadzone=21,11 / fast_pskip=1 / chroma_qp_offset=-3 / threads=16 / lookahead_threads=4 / sliced_threads=0 / nr=0 / decimate=1 / interlaced=0 / bluray_compat=0 / constrained_intra=0 / bframes=3 / b_pyramid=2 / b_adapt=2 / b_bias=0 / direct=3 / weightb=1 / open_gop=0 / weightp=2 / keyint=250 / keyint_min=25 / scenecut=40 / intra_refresh=0 / rc_lookahead=50 / rc=2pass / mbtree=1 / bitrate=2500 / ratetol=1.0 / qcomp=0.60 / qpmin=0 / qpmax=69 / qpstep=4 / cplxblur=20.0 / qblur=0.5 / vbv_maxrate=31250 / vbv_bufsize=31250 / nal_hrd=none / filler=0 / ip_ratio=1.40 / aq=3:1.00
  26. Encoded date                             : UTC 2019-06-30 19:18:09
  27. Tagged date                              : UTC 2019-06-30 19:18:09
  28. Codec configuration box                  : avcC
  29. Audio
  30. ID                                       : 2
  31. Format                                   : AAC LC
  32. Format/Info                              : Advanced Audio Codec Low Complexity
  33. Codec ID                                 : mp4a-40-2
  34. Duration                                 : 2 h 1 min
  35. Duration_LastFrame                       : -11 ms
  36. Bit rate mode                            : Constant
  37. Bit rate                                 : 224 kb/s
  38. Channel(s)                               : 6 channels
  39. Channel layout                           : C L R Ls Rs LFE
  40. Sampling rate                            : 48.0 kHz
  41. Frame rate                               : 46.875 FPS (1024 SPF)
  42. Compression mode                         : Lossy
  43. Stream size                              : 195 MiB (8%)
  44. Language                                 : Chinese
  45. Default                                  : Yes
  46. Alternate group                          : 1
  47. Encoded date                             : UTC 2019-06-30 19:18:09
  48. Tagged date                              : UTC 2019-06-30 19:18:09
复制代码






                                       
                                       

                                       
                                       
                                       




回复

使用道具 举报

懒得打字嘛,点击右侧快捷回复 【右侧内容,后台自定义】
您需要登录后才可以回帖 登录 | 立即加入

本版积分规则

Archiver|小黑屋| 蓝光电影网 |网站地图

Copyright © 2021 Comsenz Inc. Powered by 蓝光电影网

蓝光电影网

本站内容由用户自主分享和转载自互联网,转载目的在于传递更多信息,并不代表本网赞同其观点和对其真实性负责。

如有侵权、违反国家法律政策行为,请联系我们,我们会第一时间及时清除和处理!

举报反馈邮箱:[email protected]

快速回复 返回顶部 返回列表