找回密码

蓝光电影网

查看: 39|回复: 0

[爱情] 微微一笑很倾城 Love.O2O.2016.CHINESE.1080p.NF.WEBRip.DDP5.1.x264-Ao 2.09GB

[复制链接]
蓝光币
515
发表于 2019-6-1 04:05:15 | 显示全部楼层 |阅读模式


◎译  名 Love O2O / 微微一笑很倾城电影版
◎片  名 微微一笑很倾城
◎年  代 2016
◎产  地 中国大陆
◎类  别 恋爱
◎语  言 汉语普通话
◎上映日期 2016-08-12(中国大陆)
◎IMDb评分  6.3/10 from 474 users
◎IMDb链接  http://www.imdb.com/title/tt6091936
◎豆瓣评分 4.9/10 from 90515 users
◎豆瓣链接 https://movie.douban.com/subject/26301582/
◎片  长 105分钟
◎导  演 赵天宇 Tianyu Zhao
◎编  剧 顾漫 Man Gu
◎主  演 井柏然 Boran Jing
      杨颖 Angelababy
      李沁 Qin Li
      王思聪 Sicong Wang
      刘循子墨 Xunzimo Liu
      吴倩 Qian Wu
      谭松韵 Songyun Tan
      程伊 Yi Cheng
      白宇 Yu Bai
      李现 Xian Li
      王子杰 Jayden Wang
      李九霄 Jiuxiao Li
      梦秦 Mengqin Chen
      杜雨宸 Bella Du
      庞瀚辰 Hanchen Pang
      曹毅 Yi Cao
      吴玉芳 Yufang Wu
      王紫璇 Zixuan Wang
      夏欣 Xin Xia
      安韩瑾 Hanjin An
      潘霄
      张一白 Yibai Zhang
      邸天槿
      张梓豫 Ziyu Zhang
      李佳勋
      苗钟真 Zhongzhen Miao
      齐子轩
      王钧泽
      李祥翔

◎标  签 恋爱 | 青春 | 小说改编 | 校园 | 网游 | 2016 | 烂 | 失望
◎简  介  
  本片报告了一对大学风云人物肖奈(井柏然 饰)和贝微微(杨颖 饰)在虚拟游戏与实在天下中相知趣爱的故事。计较机系花贝微微酷爱收集游戏,技术纯熟高明,是游戏排行榜上唯一的女玩家,而她却由于不爆照片被以为是人妖,“惨遭”游戏里的“老公”的抛弃。在“前夫”的婚礼现场,她偶遇了游戏里的第一高手“一笑何如”,更让她出乎料想的是,这名大神居然向她求婚。
游戏里的高手“一笑何如”正是现实中著名的计较机系大神肖奈。在一次偶然相逢里,他无意中见识到贝微微熟练的游戏操纵,由此对她发生了纷歧样的情愫,而贝微微却完全没意想到爱神的来临。著名于校园的肖奈大神,起头了线上线下、虚拟与现实中全方位地捕猎美民气。一段始于二次元的奇异网游恋爱,悄悄起头……
本片改编自顾漫的同名小说。
  1. Video
  2. ID                                       : 1
  3. Format                                   : AVC
  4. Format/Info                              : Advanced Video Codec
  5. Format profile                           : [email protected]
  6. Format settings                          : CABAC / 4 Ref Frames
  7. Format settings, CABAC                   : Yes
  8. Format settings, ReFrames                : 4 frames
  9. Codec ID                                 : V_MPEG4/ISO/AVC
  10. Duration                                 : 1 h 43 min
  11. Bit rate mode                            : Variable
  12. Bit rate                                 : 2 255 kb/s
  13. Maximum bit rate                         : 20.0 Mb/s
  14. Width                                    : 1 920 pixels
  15. Height                                   : 1 080 pixels
  16. Display aspect ratio                     : 16:9
  17. Frame rate mode                          : Constant
  18. Frame rate                               : 24.000 FPS
  19. Color space                              : YUV
  20. Chroma subsampling                       : 4:2:0
  21. Bit depth                                : 8 bits
  22. Scan type                                : Progressive
  23. Bits/(Pixel*Frame)                       : 0.045
  24. Stream size                              : 1.63 GiB (78%)
  25. Writing library                          : x264 core 148 r2715 7e75228
  26. Encoding settings                        : cabac=1 / ref=4 / deblock=1:0:0 / analyse=0x3:0x111 / me=umh / subme=10 / psy=1 / psy_rd=1.00:0.00 / mixed_ref=1 / me_range=120 / chroma_me=1 / trellis=2 / 8x8dct=1 / cqm=0 / deadzone=21,11 / fast_pskip=1 / chroma_qp_offset=-2 / threads=8 / lookahead_threads=2 / sliced_threads=0 / nr=0 / decimate=1 / interlaced=0 / bluray_compat=0 / stitchable=1 / constrained_intra=0 / bframes=16 / b_pyramid=2 / b_adapt=2 / b_bias=0 / direct=3 / weightb=1 / open_gop=0 / weightp=2 / keyint=240 / keyint_min=121 / scenecut=0 / intra_refresh=0 / rc_lookahead=240 / rc=crf / mbtree=1 / crf=24.0 / qcomp=0.50 / qpmin=6 / qpmax=51 / qpstep=4 / vbv_maxrate=20000 / vbv_bufsize=25000 / crf_max=0.0 / nal_hrd=vbr / filler=0 / ip_ratio=1.40 / aq=1:0.80
  27. Default                                  : Yes
  28. Forced                                   : No
  29. Audio
  30. ID                                       : 2
  31. Format                                   : E-AC-3
  32. Format/Info                              : Enhanced AC-3
  33. Commercial name                          : Dolby Digital Plus
  34. Codec ID                                 : A_EAC3
  35. Duration                                 : 1 h 43 min
  36. Bit rate mode                            : Constant
  37. Bit rate                                 : 640 kb/s
  38. Channel(s)                               : 6 channels
  39. Channel layout                           : L R C LFE Ls Rs
  40. Sampling rate                            : 48.0 kHz
  41. Frame rate                               : 31.250 FPS (1536 SPF)
  42. Compression mode                         : Lossy
  43. Stream size                              : 473 MiB (22%)
  44. Service kind                             : Complete Main
  45. Default                                  : Yes
  46. Forced                                   : No
  47. Text #1
  48. ID                                       : 3
  49. Format                                   : UTF-8
  50. Codec ID                                 : S_TEXT/UTF8
  51. Codec ID/Info                            : UTF-8 Plain Text
  52. Duration                                 : 1 h 41 min
  53. Bit rate                                 : 59 b/s
  54. Count of elements                        : 1347
  55. Stream size                              : 43.7 KiB (0%)
  56. Title                                    : German
  57. Language                                 : German
  58. Default                                  : No
  59. Forced                                   : No
  60. Text #2
  61. ID                                       : 4
  62. Format                                   : UTF-8
  63. Codec ID                                 : S_TEXT/UTF8
  64. Codec ID/Info                            : UTF-8 Plain Text
  65. Duration                                 : 1 h 35 min
  66. Bit rate                                 : 62 b/s
  67. Count of elements                        : 1331
  68. Stream size                              : 43.8 KiB (0%)
  69. Title                                    : English
  70. Language                                 : English
  71. Default                                  : No
  72. Forced                                   : No
  73. Text #3
  74. ID                                       : 5
  75. Format                                   : UTF-8
  76. Codec ID                                 : S_TEXT/UTF8
  77. Codec ID/Info                            : UTF-8 Plain Text
  78. Duration                                 : 1 h 41 min
  79. Bit rate                                 : 58 b/s
  80. Count of elements                        : 1347
  81. Stream size                              : 43.0 KiB (0%)
  82. Title                                    : Spanish
  83. Language                                 : Spanish
  84. Default                                  : No
  85. Forced                                   : No
  86. Text #4
  87. ID                                       : 6
  88. Format                                   : UTF-8
  89. Codec ID                                 : S_TEXT/UTF8
  90. Codec ID/Info                            : UTF-8 Plain Text
  91. Duration                                 : 1 h 41 min
  92. Bit rate                                 : 55 b/s
  93. Count of elements                        : 1346
  94. Stream size                              : 41.5 KiB (0%)
  95. Title                                    : Indonesian
  96. Language                                 : Indonesian
  97. Default                                  : No
  98. Forced                                   : No
  99. Text #5
  100. ID                                       : 7
  101. Format                                   : UTF-8
  102. Codec ID                                 : S_TEXT/UTF8
  103. Codec ID/Info                            : UTF-8 Plain Text
  104. Duration                                 : 1 h 41 min
  105. Bit rate                                 : 48 b/s
  106. Count of elements                        : 1239
  107. Stream size                              : 36.1 KiB (0%)
  108. Title                                    : Japanese
  109. Language                                 : Japanese
  110. Default                                  : No
  111. Forced                                   : No
  112. Text #6
  113. ID                                       : 8
  114. Format                                   : UTF-8
  115. Codec ID                                 : S_TEXT/UTF8
  116. Codec ID/Info                            : UTF-8 Plain Text
  117. Duration                                 : 1 h 41 min
  118. Bit rate                                 : 59 b/s
  119. Count of elements                        : 1331
  120. Stream size                              : 44.3 KiB (0%)
  121. Title                                    : Korean
  122. Language                                 : Korean
  123. Default                                  : No
  124. Forced                                   : No
  125. Text #7
  126. ID                                       : 9
  127. Format                                   : UTF-8
  128. Codec ID                                 : S_TEXT/UTF8
  129. Codec ID/Info                            : UTF-8 Plain Text
  130. Duration                                 : 1 h 41 min
  131. Bit rate                                 : 58 b/s
  132. Count of elements                        : 1344
  133. Stream size                              : 43.1 KiB (0%)
  134. Title                                    : Brazilian Portuguese
  135. Default                                  : No
  136. Forced                                   : No
  137. Text #8
  138. ID                                       : 10
  139. Format                                   : UTF-8
  140. Codec ID                                 : S_TEXT/UTF8
  141. Codec ID/Info                            : UTF-8 Plain Text
  142. Duration                                 : 1 h 41 min
  143. Bit rate                                 : 141 b/s
  144. Count of elements                        : 1348
  145. Stream size                              : 105 KiB (0%)
  146. Title                                    : Thai
  147. Language                                 : Thai
  148. Default                                  : No
  149. Forced                                   : No
  150. Text #9
  151. ID                                       : 11
  152. Format                                   : UTF-8
  153. Codec ID                                 : S_TEXT/UTF8
  154. Codec ID/Info                            : UTF-8 Plain Text
  155. Duration                                 : 1 h 41 min
  156. Bit rate                                 : 78 b/s
  157. Count of elements                        : 1344
  158. Stream size                              : 58.4 KiB (0%)
  159. Title                                    : Vietnamese
  160. Language                                 : Vietnamese
  161. Default                                  : No
  162. Forced                                   : No
  163. Text #10
  164. ID                                       : 12
  165. Format                                   : UTF-8
  166. Codec ID                                 : S_TEXT/UTF8
  167. Codec ID/Info                            : UTF-8 Plain Text
  168. Duration                                 : 1 h 35 min
  169. Bit rate                                 : 50 b/s
  170. Count of elements                        : 1540
  171. Stream size                              : 35.4 KiB (0%)
  172. Title                                    : Simplified Chinese
  173. Default                                  : No
  174. Forced                                   : No
  175. Text #11
  176. ID                                       : 13
  177. Format                                   : UTF-8
  178. Codec ID                                 : S_TEXT/UTF8
  179. Codec ID/Info                            : UTF-8 Plain Text
  180. Duration                                 : 1 h 41 min
  181. Bit rate                                 : 2 b/s
  182. Count of elements                        : 62
  183. Stream size                              : 2.07 KiB (0%)
  184. Title                                    : Off
  185. Default                                  : No
  186. Forced                                   : No
  187. Text #12
  188. ID                                       : 14
  189. Format                                   : UTF-8
  190. Codec ID                                 : S_TEXT/UTF8
  191. Codec ID/Info                            : UTF-8 Plain Text
  192. Duration                                 : 1 h 41 min
  193. Bit rate                                 : 49 b/s
  194. Count of elements                        : 1563
  195. Stream size                              : 36.7 KiB (0%)
  196. Title                                    : Traditional Chinese
  197. Default                                  : No
  198. Forced                                   : No
复制代码






                                       
                                       

                                       
                                       
                                       




回复

使用道具 举报

懒得打字嘛,点击右侧快捷回复 【右侧内容,后台自定义】
您需要登录后才可以回帖 登录 | 立即加入

本版积分规则

Archiver|小黑屋| 蓝光电影网 |网站地图

Copyright © 2021 Comsenz Inc. Powered by 蓝光电影网

蓝光电影网

本站内容由用户自主分享和转载自互联网,转载目的在于传递更多信息,并不代表本网赞同其观点和对其真实性负责。

如有侵权、违反国家法律政策行为,请联系我们,我们会第一时间及时清除和处理!

举报反馈邮箱:[email protected]

快速回复 返回顶部 返回列表