找回密码

蓝光电影网

查看: 19|回复: 0

[爱情] 恋爱教主 Jinkusu.2013.JAPANESE.1080p.WEBRip.x264-VXT 2.34GB

[复制链接]
蓝光币
511
发表于 2019-10-14 14:33:19 | 显示全部楼层 |阅读模式


◎译  名 恋爱教主 / Jinx
◎片  名 ジンクス!!!
◎年  代 2013
◎产  地 日本
◎类  别 恋爱
◎语  言 日语
◎上映日期 2013-11-16(日本)
◎IMDb评分  6.9/10 from 111 users
◎IMDb链接  https://www.imdb.com/title/tt2691040
◎豆瓣评分 5.4/10 from 429 users
◎豆瓣链接 https://movie.douban.com/subject/22293372/
◎片  长 123分钟
◎导  演 熊澤尚人
◎编  剧 熊澤尚人 / まなべゆきこ
◎主  演 朴孝敏 Hyomin Park
       清水久留巳 Kurumi Shimizu
       山崎圣人 Kento Yamazaki
       落合扶树 Motoki Ochiai
       松山爱里 Airi Matsuyama
       宫田早苗 Sanae Miyata
       高桥和也 Kazuya Takahashi
       全秀景 Soo-kyung Chun

◎标  签 朴孝敏 | 日本 | 日本电影 | 山崎圣人 | 青春 | 愛情 | 韩国 | 电影
◎简  介  
  情人泰汶忽然归天,热情开畅、外向悲观的韩国女孩允智孝(朴孝敏 饰)深埋心中的悲痛,单身前昔日本做为期三个月的短期留学。来校的第一天,她就结识了独来独往、外向守旧的日本女孩山口枫(清水久留巳 饰)。掉臂小枫的反感,自言星座和血型很搭的智孝死缠烂打黏住了对方。某天,两个女孩在校园里被男生搭赸,其中名叫野村雄介(山崎圣人 饰)的是小枫初中时辰的同学,小枫一向喜好对方,但因昔时一路事务致使二人相互冷淡。知晓了小枫的情意,智孝拿出韩国女孩敢爱敢恨的劲头和追爱攻略,立誓要帮好友赢得王子的喜爱。
  阳光亮媚的校园里,男孩和女孩的浪漫故事拉开帷幕……
  1. Video
  2. ID                                       : 1
  3. Format                                   : AVC
  4. Format/Info                              : Advanced Video Codec
  5. Format profile                           : [email protected]
  6. Format settings                          : CABAC / 4 Ref Frames
  7. Format settings, CABAC                   : Yes
  8. Format settings, Reference frames        : 4 frames
  9. Codec ID                                 : avc1
  10. Codec ID/Info                            : Advanced Video Coding
  11. Duration                                 : 2 h 2 min
  12. Bit rate                                 : 2 500 kb/s
  13. Width                                    : 1 920 pixels
  14. Height                                   : 1 040 pixels
  15. Display aspect ratio                     : 1.85:1
  16. Frame rate mode                          : Constant
  17. Frame rate                               : 23.976 (23976/1000) FPS
  18. Color space                              : YUV
  19. Chroma subsampling                       : 4:2:0
  20. Bit depth                                : 8 bits
  21. Scan type                                : Progressive
  22. Bits/(Pixel*Frame)                       : 0.052
  23. Stream size                              : 2.14 GiB (92%)
  24. Writing library                          : x264 core 152 r2851M ba24899
  25. Encoding settings                        : cabac=1 / ref=4 / deblock=1:-1:-1 / analyse=0x3:0x113 / me=umh / subme=9 / psy=1 / psy_rd=1.00:0.15 / mixed_ref=1 / me_range=24 / chroma_me=1 / trellis=2 / 8x8dct=1 / cqm=0 / deadzone=21,11 / fast_pskip=1 / chroma_qp_offset=-3 / threads=16 / lookahead_threads=4 / sliced_threads=0 / nr=0 / decimate=1 / interlaced=0 / bluray_compat=0 / constrained_intra=0 / bframes=3 / b_pyramid=2 / b_adapt=2 / b_bias=0 / direct=3 / weightb=1 / open_gop=0 / weightp=2 / keyint=250 / keyint_min=25 / scenecut=40 / intra_refresh=0 / rc_lookahead=50 / rc=2pass / mbtree=1 / bitrate=2500 / ratetol=1.0 / qcomp=0.60 / qpmin=0 / qpmax=69 / qpstep=4 / cplxblur=20.0 / qblur=0.5 / vbv_maxrate=31250 / vbv_bufsize=31250 / nal_hrd=none / filler=0 / ip_ratio=1.40 / aq=3:1.00
  26. Encoded date                             : UTC 2019-10-14 00:45:40
  27. Tagged date                              : UTC 2019-10-14 00:45:40
  28. Codec configuration box                  : avcC
  29. Audio
  30. ID                                       : 2
  31. Format                                   : AAC LC
  32. Format/Info                              : Advanced Audio Codec Low Complexity
  33. Codec ID                                 : mp4a-40-2
  34. Duration                                 : 2 h 2 min
  35. Duration_LastFrame                       : -11 ms
  36. Bit rate mode                            : Constant
  37. Bit rate                                 : 224 kb/s
  38. Channel(s)                               : 6 channels
  39. Channel layout                           : C L R Ls Rs LFE
  40. Sampling rate                            : 48.0 kHz
  41. Frame rate                               : 46.875 FPS (1024 SPF)
  42. Compression mode                         : Lossy
  43. Stream size                              : 197 MiB (8%)
  44. Language                                 : Japanese
  45. Default                                  : Yes
  46. Alternate group                          : 1
  47. Encoded date                             : UTC 2019-10-14 00:45:40
  48. Tagged date                              : UTC 2019-10-14 00:45:40
复制代码






                                       
                                       

                                       
                                       
                                       




回复

使用道具 举报

懒得打字嘛,点击右侧快捷回复 【右侧内容,后台自定义】
您需要登录后才可以回帖 登录 | 立即加入

本版积分规则

Archiver|小黑屋| 蓝光电影网 |网站地图

Copyright © 2021 Comsenz Inc. Powered by 蓝光电影网

蓝光电影网

本站内容由用户自主分享和转载自互联网,转载目的在于传递更多信息,并不代表本网赞同其观点和对其真实性负责。

如有侵权、违反国家法律政策行为,请联系我们,我们会第一时间及时清除和处理!

举报反馈邮箱:[email protected]

快速回复 返回顶部 返回列表