找回密码

蓝光电影网

查看: 21|回复: 0

[爱情] 恋爱教主 Jinkusu.2013.JAPANESE.1080p.AMZN.WEBRip.DDP5.1.x264-DEEP 8.65GB

[复制链接]
蓝光币
511
发表于 2019-10-13 23:25:46 | 显示全部楼层 |阅读模式


◎译  名 恋爱教主 / Jinx
◎片  名 ジンクス!!!
◎年  代 2013
◎产  地 日本
◎类  别 恋爱
◎语  言 日语
◎上映日期 2013-11-16(日本)
◎IMDb评分  6.9/10 from 111 users
◎IMDb链接  https://www.imdb.com/title/tt2691040
◎豆瓣评分 5.4/10 from 429 users
◎豆瓣链接 https://movie.douban.com/subject/22293372/
◎片  长 123分钟
◎导  演 熊澤尚人
◎编  剧 熊澤尚人 / まなべゆきこ
◎主  演 朴孝敏 Hyomin Park
       清水久留巳 Kurumi Shimizu
       山崎圣人 Kento Yamazaki
       落合扶树 Motoki Ochiai
       松山爱里 Airi Matsuyama
       宫田早苗 Sanae Miyata
       高桥和也 Kazuya Takahashi
       全秀景 Soo-kyung Chun

◎标  签 朴孝敏 | 日本 | 日本电影 | 山崎圣人 | 青春 | 愛情 | 韩国 | 电影
◎简  介  
  情人泰汶忽然归天,热情开畅、外向悲观的韩国女孩允智孝(朴孝敏 饰)深埋心中的悲痛,单身前昔日本做为期三个月的短期留学。来校的第一天,她就结识了独来独往、外向守旧的日本女孩山口枫(清水久留巳 饰)。掉臂小枫的反感,自言星座和血型很搭的智孝死缠烂打黏住了对方。某天,两个女孩在校园里被男生搭赸,其中名叫野村雄介(山崎圣人 饰)的是小枫初中时辰的同学,小枫一向喜好对方,但因昔时一路事务致使二人相互冷淡。知晓了小枫的情意,智孝拿出韩国女孩敢爱敢恨的劲头和追爱攻略,立誓要帮好友赢得王子的喜爱。
  阳光亮媚的校园里,男孩和女孩的浪漫故事拉开帷幕……
  1. Video
  2. ID                                       : 1
  3. Format                                   : AVC
  4. Format/Info                              : Advanced Video Codec
  5. Format profile                           : [email protected]
  6. Format settings                          : CABAC / 4 Ref Frames
  7. Format settings, CABAC                   : Yes
  8. Format settings, Reference frames        : 4 frames
  9. Format settings, GOP                     : M=4, N=48
  10. Codec ID                                 : V_MPEG4/ISO/AVC
  11. Duration                                 : 2 h 2 min
  12. Bit rate mode                            : Constant
  13. Bit rate                                 : 10 000 kb/s
  14. Width                                    : 1 920 pixels
  15. Height                                   : 1 040 pixels
  16. Display aspect ratio                     : 1.85:1
  17. Frame rate mode                          : Constant
  18. Frame rate                               : 23.976 (24000/1001) FPS
  19. Color space                              : YUV
  20. Chroma subsampling                       : 4:2:0
  21. Bit depth                                : 8 bits
  22. Scan type                                : Progressive
  23. Bits/(Pixel*Frame)                       : 0.209
  24. Stream size                              : 8.26 GiB (95%)
  25. Default                                  : Yes
  26. Forced                                   : No
  27. Color range                              : Limited
  28. Color primaries                          : BT.709
  29. Transfer characteristics                 : BT.709
  30. Matrix coefficients                      : BT.709
  31. Statistics Tags Issue                    : mkvmerge v30.1.0 (\'Forever And More\') 64-bit 2019-10-09 20:31:08 / mkvmerge v6.0.0 (\'Coming Up For Air\') built on Jan 20 2013 09:52:00 2019-10-12 10:07:40
  32. FromStats_BitRate                        : 9825823
  33. FromStats_Duration                       : 02:02:52.616000000
  34. FromStats_FrameCount                     : 176766
  35. FromStats_StreamSize                     : 9055253194
  36. Audio
  37. ID                                       : 2
  38. Format                                   : E-AC-3
  39. Format/Info                              : Enhanced AC-3
  40. Commercial name                          : Dolby Digital Plus
  41. Codec ID                                 : A_EAC3
  42. Duration                                 : 2 h 2 min
  43. Bit rate mode                            : Constant
  44. Bit rate                                 : 256 kb/s
  45. Channel(s)                               : 6 channels
  46. Channel layout                           : L R C LFE Ls Rs
  47. Sampling rate                            : 48.0 kHz
  48. Frame rate                               : 31.250 FPS (1536 SPF)
  49. Compression mode                         : Lossy
  50. Stream size                              : 225 MiB (3%)
  51. Language                                 : Japanese
  52. Service kind                             : Complete Main
  53. Default                                  : Yes
  54. Forced                                   : No
  55. Statistics Tags Issue                    : mkvmerge v30.1.0 (\'Forever And More\') 64-bit 2019-10-09 20:31:08 / mkvmerge v6.0.0 (\'Coming Up For Air\') built on Jan 20 2013 09:52:00 2019-10-12 10:07:40
  56. FromStats_BitRate                        : 256000
  57. FromStats_Duration                       : 02:02:52.640000000
  58. FromStats_FrameCount                     : 230395
  59. FromStats_StreamSize                     : 235924480
  60. Text
  61. ID                                       : 3
  62. Format                                   : UTF-8
  63. Codec ID                                 : S_TEXT/UTF8
  64. Codec ID/Info                            : UTF-8 Plain Text
  65. Language                                 : English
  66. Default                                  : Yes
  67. Forced                                   : No
复制代码






                                       
                                       

                                       
                                       
                                       




回复

使用道具 举报

懒得打字嘛,点击右侧快捷回复 【右侧内容,后台自定义】
您需要登录后才可以回帖 登录 | 立即加入

本版积分规则

Archiver|小黑屋| 蓝光电影网 |网站地图

Copyright © 2021 Comsenz Inc. Powered by 蓝光电影网

蓝光电影网

本站内容由用户自主分享和转载自互联网,转载目的在于传递更多信息,并不代表本网赞同其观点和对其真实性负责。

如有侵权、违反国家法律政策行为,请联系我们,我们会第一时间及时清除和处理!

举报反馈邮箱:[email protected]

快速回复 返回顶部 返回列表