找回密码

蓝光电影网

查看: 17|回复: 0

[爱情] 初来乍到 First.Comes.Like.2016.1080p.WEBRip.x264-iNTENSO 4.36GB

[复制链接]
蓝光币
515
发表于 2019-10-8 23:03:54 | 显示全部楼层 |阅读模式


◎译  名 初来乍到
◎片  名 First Comes Like
◎年  代 2016
◎产  地 美国
◎类  别 恋爱
◎语  言 英语
◎上映日期 2016-04-30(美国)
◎IMDb评分  6.4/10 from 58 users
◎IMDb链接  http://www.imdb.com/title/tt5478698
◎豆瓣评分 0/10 from 0 users
◎豆瓣链接 https://movie.douban.com/subject/30142669/
◎片  长 82分钟
◎导  演 Noel Douglas Orput
◎编  剧 Noel Douglas Orput
◎主  演 Nicole Brandon
       Robin De Lano
       乔·弗里亚 Joe Fria
       Will Hawkes
       Nikki McKenzie
       Arthur Richardson
       Robert Serrini
       斯特灵·苏利曼 Sterling Sulieman
       Sable Williams

◎简  介  
  After they both swipe right, Jeff and Kate start to build a personal relationship through the most impersonal of ways--technology. From flirty texting to their first Skype date, they find themselves drawn to each other but are scared of actually making the choice to meet in person. Because in today's dating scene, first comes like and then comes, should we meet?
  1. Video
  2. ID : 1
  3. Format : AVC
  4. Format/Info : Advanced Video Codec
  5. Format profile : [email protected]
  6. Format settings : CABAC / 4 Ref Frames
  7. Format settings, CABAC : Yes
  8. Format settings, Reference frames : 4 frames
  9. Codec ID : V_MPEG4/ISO/AVC
  10. Duration : 1 h 21 min
  11. Bit rate : 7 598 kb/s
  12. Width : 1 920 pixels
  13. Height : 1 080 pixels
  14. Display aspect ratio : 16:9
  15. Frame rate mode : Constant
  16. Frame rate : 23.976 (24000/1001) FPS
  17. Color space : YUV
  18. Chroma subsampling : 4:2:0
  19. Bit depth : 8 bits
  20. Scan type : Progressive
  21. Bits/(Pixel*Frame) : 0.153
  22. Stream size : 4.30 GiB (99%)
  23. Writing library : x264 core 155 r2901 7d0ff22
  24. Encoding settings : cabac=1 / ref=4 / deblock=1:-3:-3 / analyse=0x3:0x133 / me=umh / subme=11 / psy=1 / psy_rd=1.05:0.15 / mixed_ref=1 / me_range=16 / chroma_me=1 / trellis=2 / 8x8dct=1 / cqm=0 / deadzone=21,11 / fast_pskip=0 / chroma_qp_offset=-3 / threads=34 / lookahead_threads=2 / sliced_threads=0 / nr=0 / decimate=1 / interlaced=0 / bluray_compat=0 / constrained_intra=0 / bframes=3 / b_pyramid=2 / b_adapt=2 / b_bias=0 / direct=3 / weightb=1 / open_gop=0 / weightp=2 / keyint=250 / keyint_min=24 / scenecut=40 / intra_refresh=0 / rc_lookahead=50 / rc=crf / mbtree=1 / crf=17.0 / qcomp=0.60 / qpmin=0 / qpmax=69 / qpstep=4 / ip_ratio=1.40 / aq=3:0.65
  25. Language : English
  26. Default : Yes
  27. Forced : No
  28. Audio
  29. ID : 2
  30. Format : AAC LC
  31. Format/Info : Advanced Audio Codec Low Complexity
  32. Codec ID : A_AAC-2
  33. Duration : 1 h 21 min
  34. Bit rate : 113 kb/s
  35. Channel(s) : 2 channels
  36. Channel layout : L R
  37. Sampling rate : 48.0 kHz
  38. Frame rate : 46.875 FPS (1024 SPF)
  39. Compression mode : Lossy
  40. Stream size : 65.5 MiB (1%)
  41. Language : English
  42. Default : Yes
  43. Forced : No
  44. Menu
  45. 00:00:00.054 : en:00:00:00.054
复制代码




                                       
                                       

                                       
                                       
                                       




回复

使用道具 举报

懒得打字嘛,点击右侧快捷回复 【右侧内容,后台自定义】
您需要登录后才可以回帖 登录 | 立即加入

本版积分规则

Archiver|小黑屋| 蓝光电影网 |网站地图

Copyright © 2021 Comsenz Inc. Powered by 蓝光电影网

蓝光电影网

本站内容由用户自主分享和转载自互联网,转载目的在于传递更多信息,并不代表本网赞同其观点和对其真实性负责。

如有侵权、违反国家法律政策行为,请联系我们,我们会第一时间及时清除和处理!

举报反馈邮箱:[email protected]

快速回复 返回顶部 返回列表