找回密码

蓝光电影网

查看: 21|回复: 0

[爱情] 生日女郎/伊媚儿新娘 Birthday.Girl.2001.1080p.AMZN.WEBRip.DDP5.1.x264-NTb 8.19GB

[复制链接]
蓝光币
519
发表于 2019-9-30 01:33:48 | 显示全部楼层 |阅读模式


◎译  名 生日女郎 / 伊媚儿新娘 / 惊婚计
◎片  名 Birthday Girl
◎年  代 2001
◎产  地 英国 / 美国
◎类  别 恋爱 / 惊悚 / 情色 / 犯罪
◎语  言 英语 / 俄语
◎上映日期 2001-09-06
◎IMDb评分  6.1/10 from 23492 users
◎IMDb链接  http://www.imdb.com/title/tt0188453
◎豆瓣评分 6.4/10 from 1165 users
◎豆瓣链接 https://movie.douban.com/subject/1306608/
◎片  长 93 分钟
◎导  演 Jez Butterworth
◎编  剧 Jez Butterworth / Tom Butterworth
◎主  演 Nicole Kidman
       Ben Chaplin
       Vincent Cassel
       Mathieu Kassovitz

◎标  签 NicoleKidman | 美国 | 英国 | 犯罪 | 妮可.基德曼 | 剧情 | 2001 | 美国电影
◎简  介  
  约翰(本·卓别林 Ben Chaplin 饰)是小镇上的银行职员,多年来孤独而又单调的生活让他的豪情天下空虚异常,在孤单的驱使下,他居然鬼使神差地在一个名为“爱在俄罗斯”的结交网站上订购了一位俄罗斯女郎纳迪亚(妮可·基德曼 Nicole Kidman 饰)。
  在网站材料先容中,纳迪亚本性开畅温柔贤慧,更妙的是,她还会说一口流利的英语,和约翰之间的交换根基上没有障碍。但是,当约翰满心欢乐地到机场去接远道而来的纳迪亚之时,他才发现,她所谓的流利英语,只要一个单词,那就是“yes”。随着时候的推移,约翰渐渐发现了纳迪亚的美好之处,她所绽放出来的豪情和魅力足以抵消其他的一切不敷。纳迪亚的生日很快就要到临,约翰预备替她预备一场盛大的庆贺,现在的他还不晓得,那日,两个不速之客的到来将完全改变他的命运。
  1. Video
  2. ID                                       : 1
  3. Format                                   : AVC
  4. Format/Info                              : Advanced Video Codec
  5. Format profile                           : [email protected]
  6. Format settings                          : CABAC / 4 Ref Frames
  7. Format settings, CABAC                   : Yes
  8. Format settings, Reference frames        : 4 frames
  9. Codec ID                                 : V_MPEG4/ISO/AVC
  10. Duration                                 : 1 h 30 min
  11. Bit rate mode                            : Variable
  12. Bit rate                                 : 12.1 Mb/s
  13. Maximum bit rate                         : 15.0 Mb/s
  14. Width                                    : 1 920 pixels
  15. Height                                   : 816 pixels
  16. Display aspect ratio                     : 2.35:1
  17. Frame rate mode                          : Constant
  18. Frame rate                               : 23.976 (24000/1001) FPS
  19. Color space                              : YUV
  20. Chroma subsampling                       : 4:2:0
  21. Bit depth                                : 8 bits
  22. Scan type                                : Progressive
  23. Bits/(Pixel*Frame)                       : 0.322
  24. Stream size                              : 7.62 GiB (93%)
  25. Writing library                          : x264 core 148 r2623 d5b2374
  26. Encoding settings                        : cabac=1 / ref=4 / deblock=1:-1:-1 / analyse=0x3:0x133 / me=umh / subme=9 / psy=1 / psy_rd=1.00:0.15 / mixed_ref=1 / me_range=24 / chroma_me=1 / trellis=2 / 8x8dct=1 / cqm=0 / deadzone=21,11 / fast_pskip=1 / chroma_qp_offset=-3 / threads=25 / lookahead_threads=4 / sliced_threads=0 / nr=150 / decimate=1 / interlaced=0 / bluray_compat=0 / constrained_intra=0 / bframes=8 / b_pyramid=2 / b_adapt=2 / b_bias=0 / direct=3 / weightb=1 / open_gop=0 / weightp=2 / keyint=120 / keyint_min=61 / scenecut=0 / intra_refresh=0 / rc_lookahead=120 / rc=crf / mbtree=1 / crf=18.0 / qcomp=0.60 / qpmin=0 / qpmax=69 / qpstep=4 / vbv_maxrate=15000 / vbv_bufsize=31250 / crf_max=0.0 / nal_hrd=vbr / filler=0 / ip_ratio=1.40 / aq=3:1.00
  27. Default                                  : Yes
  28. Forced                                   : No
  29. Color range                              : Limited
  30. Color primaries                          : BT.709
  31. Transfer characteristics                 : BT.709
  32. Matrix coefficients                      : BT.709

  33. Audio
  34. ID                                       : 2
  35. Format                                   : E-AC-3
  36. Format/Info                              : Enhanced AC-3
  37. Commercial name                          : Dolby Digital Plus
  38. Codec ID                                 : A_EAC3
  39. Duration                                 : 1 h 30 min
  40. Bit rate mode                            : Constant
  41. Bit rate                                 : 640 kb/s
  42. Channel(s)                               : 6 channels
  43. Channel layout                           : L R C LFE Ls Rs
  44. Sampling rate                            : 48.0 kHz
  45. Frame rate                               : 31.250 FPS (1536 SPF)
  46. Compression mode                         : Lossy
  47. Stream size                              : 414 MiB (5%)
  48. Language                                 : English
  49. Service kind                             : Complete Main
  50. Default                                  : Yes
  51. Forced                                   : No

  52. Text
  53. ID                                       : 3
  54. Format                                   : UTF-8
  55. Codec ID                                 : S_TEXT/UTF8
  56. Codec ID/Info                            : UTF-8 Plain Text
  57. Language                                 : English
  58. Default                                  : No
  59. Forced                                   : No
复制代码









                                       
                                       

                                       
                                       
                                       




回复

使用道具 举报

懒得打字嘛,点击右侧快捷回复 【右侧内容,后台自定义】
您需要登录后才可以回帖 登录 | 立即加入

本版积分规则

Archiver|小黑屋| 蓝光电影网 |网站地图

Copyright © 2021 Comsenz Inc. Powered by 蓝光电影网

蓝光电影网

本站内容由用户自主分享和转载自互联网,转载目的在于传递更多信息,并不代表本网赞同其观点和对其真实性负责。

如有侵权、违反国家法律政策行为,请联系我们,我们会第一时间及时清除和处理!

举报反馈邮箱:[email protected]

快速回复 返回顶部 返回列表