找回密码

蓝光电影网

查看: 21|回复: 0

[爱情] 小松鼠 Perri.1957.1080p.AMZN.WEBRip.DDP2.0.x264-SbR 6.68GB

[复制链接]
蓝光币
511
发表于 2019-9-25 01:55:16 | 显示全部楼层 |阅读模式


◎译  名 小松鼠
◎片  名 Perri
◎年  代 1957
◎产  地 美国
◎类  别 恋爱 / 家庭 / 奇异 / 冒险
◎语  言 英语
◎上映日期 1958-10-09
◎IMDb评分  7.0/10 from 287 users
◎IMDb链接  http://www.imdb.com/title/tt0050837
◎豆瓣评分 0/10 from 0 users
◎豆瓣链接 https://movie.douban.com/subject/1296746/
◎片  长 75 分钟
◎导  演 Paul Kenworthy Jr. / Ralph Wright
◎编  剧 Felix Salten / Ralph Wright / 温斯顿 希布勒 (Winston Hibler)
◎标  签 美国 | 奥斯卡最好配乐
◎简  介  
  暂无相关剧情先容
◎获奖情况  
  第30届奥斯卡金像奖(1958)
  最好配乐(提名) Paul J. Smith
  1. Video
  2. ID                                       : 1
  3. Format                                   : AVC
  4. Format/Info                              : Advanced Video Codec
  5. Format profile                           : [email protected]
  6. Format settings                          : CABAC / 4 Ref Frames
  7. Format settings, CABAC                   : Yes
  8. Format settings, Reference frames        : 4 frames
  9. Codec ID                                 : V_MPEG4/ISO/AVC
  10. Duration                                 : 1 h 14 min
  11. Bit rate mode                            : Variable
  12. Bit rate                                 : 12.6 Mb/s
  13. Maximum bit rate                         : 15.0 Mb/s
  14. Width                                    : 1 440 pixels
  15. Height                                   : 1 080 pixels
  16. Display aspect ratio                     : 4:3
  17. Frame rate mode                          : Constant
  18. Frame rate                               : 23.976 (24000/1001) FPS
  19. Color space                              : YUV
  20. Chroma subsampling                       : 4:2:0
  21. Bit depth                                : 8 bits
  22. Scan type                                : Progressive
  23. Bits/(Pixel*Frame)                       : 0.338
  24. Stream size                              : 6.56 GiB (98%)
  25. Language                                 : English
  26. Default                                  : Yes
  27. Forced                                   : No
  28. Color range                              : Limited
  29. Color primaries                          : BT.709
  30. Transfer characteristics                 : BT.709
  31. Matrix coefficients                      : BT.709

  32. Audio
  33. ID                                       : 2
  34. Format                                   : E-AC-3
  35. Format/Info                              : Enhanced AC-3
  36. Commercial name                          : Dolby Digital Plus
  37. Codec ID                                 : A_EAC3
  38. Duration                                 : 1 h 14 min
  39. Bit rate mode                            : Constant
  40. Bit rate                                 : 224 kb/s
  41. Channel(s)                               : 2 channels
  42. Channel layout                           : L R
  43. Sampling rate                            : 48.0 kHz
  44. Frame rate                               : 31.250 FPS (1536 SPF)
  45. Compression mode                         : Lossy
  46. Stream size                              : 119 MiB (2%)
  47. Language                                 : English
  48. Service kind                             : Complete Main
  49. Default                                  : Yes
  50. Forced                                   : No

  51. Text #1
  52. ID                                       : 3
  53. Format                                   : UTF-8
  54. Codec ID                                 : S_TEXT/UTF8
  55. Codec ID/Info                            : UTF-8 Plain Text
  56. Duration                                 : 1 h 13 min
  57. Bit rate                                 : 43 b/s
  58. Count of elements                        : 580
  59. Stream size                              : 23.3 KiB (0%)
  60. Language                                 : English
  61. Default                                  : No
  62. Forced                                   : No

  63. Text #2
  64. ID                                       : 4
  65. Format                                   : UTF-8
  66. Codec ID                                 : S_TEXT/UTF8
  67. Codec ID/Info                            : UTF-8 Plain Text
  68. Duration                                 : 1 h 13 min
  69. Bit rate                                 : 46 b/s
  70. Count of elements                        : 744
  71. Stream size                              : 25.2 KiB (0%)
  72. Title                                    : SDH
  73. Language                                 : English
  74. Default                                  : No
  75. Forced                                   : No

  76. Menu
  77. 00:00:00.000                             : en:Chapter 1
  78. 00:09:58.431                             : en:Chapter 2
  79. 00:19:01.557                             : en:Chapter 3
  80. 00:28:59.696                             : en:Chapter 4
  81. 00:38:57.001                             : en:Chapter 5
  82. 00:49:01.021                             : en:Chapter 6
  83. 00:56:05.946                             : en:Chapter 7
  84. 01:05:47.819                             : en:Chapter 8
复制代码









                                       
                                       

                                       
                                       
                                       




回复

使用道具 举报

懒得打字嘛,点击右侧快捷回复 【右侧内容,后台自定义】
您需要登录后才可以回帖 登录 | 立即加入

本版积分规则

Archiver|小黑屋| 蓝光电影网 |网站地图

Copyright © 2021 Comsenz Inc. Powered by 蓝光电影网

蓝光电影网

本站内容由用户自主分享和转载自互联网,转载目的在于传递更多信息,并不代表本网赞同其观点和对其真实性负责。

如有侵权、违反国家法律政策行为,请联系我们,我们会第一时间及时清除和处理!

举报反馈邮箱:[email protected]

快速回复 返回顶部 返回列表