找回密码

蓝光电影网

查看: 23|回复: 0

[爱情] 卢斯 Luz.2018.SUBBED..1080p.AMZN.WEBRip.DDP5.1.x264-NTG 4.78GB

[复制链接]
蓝光币
519
发表于 2019-9-24 16:11:07 | 显示全部楼层 |阅读模式


◎译  名 卢斯
◎片  名 Luz
◎年  代 2018
◎产  地 德国
◎类  别 恋爱 / 悬疑 / 惊悚 / 可骇
◎语  言 德语
◎上映日期 2018-02-20(德国)
◎IMDb评分  6.0/10 from 439 users
◎IMDb链接  http://www.imdb.com/title/tt7858616
◎豆瓣评分 0/10 from 0 users
◎豆瓣链接 https://movie.douban.com/subject/30215119/
◎片  长 70分钟
◎导  演 Tilman Singer
◎编  剧 蒂尔曼·辛格 Tilman Singer
◎主  演 Johannes Benecke
       Jan Bluthardt
       Lilli Lorenz

◎标  签 可骇 | 惊悚 | 悬疑 | 德国电影 | P-BerlinF柏林透视 | 2010s | 德国 | Tilman_Singer
◎简  介  
  Luz, a young cabdriver, drags herself into the brightly lit entrance of a run-down police station. A demonic entity follows her, determined to finally be close to the woman it loves.
◎获奖情况  
  第68届柏林国际电影节(2018)
  最好童贞作奖(提名) 蒂尔曼·辛格
  1. Video
  2. ID : 1
  3. Format : AVC
  4. Format/Info : Advanced Video Codec
  5. Format profile : [email protected]
  6. Format settings : CABAC / 4 Ref Frames
  7. Format settings, CABAC : Yes
  8. Format settings, Reference frames : 4 frames
  9. Codec ID : V_MPEG4/ISO/AVC
  10. Duration : 1 h 10 min
  11. Bit rate mode : Constant
  12. Bit rate : 9 053 kb/s
  13. Nominal bit rate : 10 000 kb/s
  14. Width : 1 920 pixels
  15. Height : 872 pixels
  16. Display aspect ratio : 2.2:1
  17. Original display aspect ratio : 2.2:1
  18. Frame rate mode : Constant
  19. Frame rate : 23.976 (24000/1001) FPS
  20. Color space : YUV
  21. Chroma subsampling : 4:2:0
  22. Bit depth : 8 bits
  23. Scan type : Progressive
  24. Bits/(Pixel*Frame) : 0.226
  25. Stream size : 4.46 GiB (93%)
  26. Default : Yes
  27. Forced : No
  28. Color range : Limited
  29. Color primaries : BT.709
  30. Transfer characteristics : BT.709
  31. Matrix coefficients : BT.709
  32. Audio
  33. ID : 2
  34. Format : E-AC-3
  35. Format/Info : Enhanced AC-3
  36. Commercial name : Dolby Digital Plus
  37. Codec ID : A_EAC3
  38. Duration : 1 h 10 min
  39. Bit rate mode : Constant
  40. Bit rate : 640 kb/s
  41. Channel(s) : 6 channels
  42. Channel layout : L R C LFE Ls Rs
  43. Sampling rate : 48.0 kHz
  44. Frame rate : 31.250 FPS (1536 SPF)
  45. Compression mode : Lossy
  46. Stream size : 323 MiB (7%)
  47. Service kind : Complete Main
  48. Default : Yes
  49. Forced : No
  50. Text #1
  51. ID : 3
  52. Format : UTF-8
  53. Codec ID : S_TEXT/UTF8
  54. Codec ID/Info : UTF-8 Plain Text
  55. Duration : 1 min 41 s
  56. Bit rate : 14 b/s
  57. Count of elements : 8
  58. Stream size : 181 Bytes (0%)
  59. Language : English
  60. Default : No
  61. Forced : No
  62. Text #2
  63. ID : 4
  64. Format : UTF-8
  65. Codec ID : S_TEXT/UTF8
  66. Codec ID/Info : UTF-8 Plain Text
  67. Duration : 1 h 3 min
  68. Bit rate : 3 b/s
  69. Count of elements : 68
  70. Stream size : 1.44 KiB (0%)
  71. Title : SDH
  72. Language : English
  73. Default : No
  74. Forced : No
复制代码






                                       
                                       

                                       
                                       
                                       




回复

使用道具 举报

懒得打字嘛,点击右侧快捷回复 【右侧内容,后台自定义】
您需要登录后才可以回帖 登录 | 立即加入

本版积分规则

Archiver|小黑屋| 蓝光电影网 |网站地图

Copyright © 2021 Comsenz Inc. Powered by 蓝光电影网

蓝光电影网

本站内容由用户自主分享和转载自互联网,转载目的在于传递更多信息,并不代表本网赞同其观点和对其真实性负责。

如有侵权、违反国家法律政策行为,请联系我们,我们会第一时间及时清除和处理!

举报反馈邮箱:[email protected]

快速回复 返回顶部 返回列表