找回密码

蓝光电影网

查看: 22|回复: 0

[爱情] 离别是美丽的 Departure.2015.1080p.AMZN.WEBRip.DDP5.1.x264-CURLY 7.09GB

[复制链接]
蓝光币
515
发表于 2019-9-19 20:05:37 | 显示全部楼层 |阅读模式


◎译  名 离别是美丽的 / Beautiful Departure / 离别(港) / 分开你的我该怎样办(台) / 美丽的离别
◎片  名 Departure
◎年  代 2015
◎产  地 英国 / 法国
◎类  别 恋爱 / 同性 / 家庭
◎语  言 英语 / 法语
◎上映日期 2016-05-20(英国)
◎IMDb评分  6.7/10 from 1746 users
◎IMDb链接  http://www.imdb.com/title/tt2248739
◎豆瓣评分 7.5/10 from 5690 users
◎豆瓣链接 https://movie.douban.com/subject/26331185/
◎片  长 109分钟
◎导  演 安德鲁·斯特格奥 Andrew Steggall
◎编  剧 安德鲁·斯特格奥 Andrew Steggall
◎主  演 茱丽叶特·斯蒂文森 Juliet Stevenson
       埃里克斯·劳瑟 Alex Lawther
       菲尼克斯·布罗萨德 Phénix Brossard
       芬巴尔·林奇 Finbar Lynch
       妮雅姆·库萨克 Niamh Cusack
       帕特里斯·朱伊夫 Patrice Juiff
       纪尧姆·托博 Guillaume Tobo

◎标  签 同性 | 文艺 | 英国 | 法国 | 青春 | 恋爱 | 家庭 | 同道
◎简  介  
  离别一个阶段、分开一段关係、再会已经的生活,历来都是冗长的进程。接管需要时候、更生需要勇气,最初的再会,总要一步一步走曩昔。婚姻来到绝顶的母亲跟自己的儿子,来到法国南部的渡假屋作最初执拾,预备向这间满载幸运回忆的大屋死别。还在悼念逝去豪情的妈妈,跟儿子关係突变疏离。面临明媚却寂静的风光,一位男人的出现,为二人带来分歧水平的震盪,美丽的记下了婚姻的终结、少年时代的了结和一其中产家庭的崩溃。
◎获奖情况  
  第3届豆瓣电影年度榜单(2016)
  年度LGBT电影(提名)
  1. Video
  2. ID                                       : 1
  3. Format                                   : AVC
  4. Format/Info                              : Advanced Video Codec
  5. Format profile                           : [email protected]
  6. Format settings                          : CABAC / 4 Ref Frames
  7. Format settings, CABAC                   : Yes
  8. Format settings, Reference frames        : 4 frames
  9. Codec ID                                 : V_MPEG4/ISO/AVC
  10. Duration                                 : 1 h 48 min
  11. Bit rate mode                            : Constant
  12. Bit rate                                 : 8 706 kb/s
  13. Nominal bit rate                         : 10 000 kb/s
  14. Width                                    : 1 920 pixels
  15. Height                                   : 1 080 pixels
  16. Display aspect ratio                     : 16:9
  17. Frame rate mode                          : Constant
  18. Frame rate                               : 23.976 (24000/1001) FPS
  19. Color space                              : YUV
  20. Chroma subsampling                       : 4:2:0
  21. Bit depth                                : 8 bits
  22. Scan type                                : Progressive
  23. Bits/(Pixel*Frame)                       : 0.175
  24. Stream size                              : 6.60 GiB (93%)
  25. Default                                  : Yes
  26. Forced                                   : No
  27. Color range                              : Limited
  28. Color primaries                          : BT.709
  29. Transfer characteristics                 : BT.709
  30. Matrix coefficients                      : BT.709
  31. Audio
  32. ID                                       : 2
  33. Format                                   : E-AC-3
  34. Format/Info                              : Enhanced AC-3
  35. Commercial name                          : Dolby Digital Plus
  36. Codec ID                                 : A_EAC3
  37. Duration                                 : 1 h 48 min
  38. Bit rate mode                            : Constant
  39. Bit rate                                 : 640 kb/s
  40. Channel(s)                               : 6 channels
  41. Channel layout                           : L R C LFE Ls Rs
  42. Sampling rate                            : 48.0 kHz
  43. Frame rate                               : 31.250 FPS (1536 SPF)
  44. Compression mode                         : Lossy
  45. Stream size                              : 497 MiB (7%)
  46. Title                                    : English
  47. Language                                 : English
  48. Service kind                             : Complete Main
  49. Default                                  : Yes
  50. Forced                                   : No
  51. Text
  52. ID                                       : 3
  53. Format                                   : UTF-8
  54. Codec ID                                 : S_TEXT/UTF8
  55. Codec ID/Info                            : UTF-8 Plain Text
  56. Duration                                 : 1 h 47 min
  57. Bit rate                                 : 27 b/s
  58. Count of elements                        : 713
  59. Stream size                              : 21.6 KiB (0%)
  60. Title                                    : English [SDH]
  61. Language                                 : English
  62. Default                                  : No
  63. Forced                                   : No
复制代码






                                       
                                       

                                       
                                       
                                       




回复

使用道具 举报

懒得打字嘛,点击右侧快捷回复 【右侧内容,后台自定义】
您需要登录后才可以回帖 登录 | 立即加入

本版积分规则

Archiver|小黑屋| 蓝光电影网 |网站地图

Copyright © 2021 Comsenz Inc. Powered by 蓝光电影网

蓝光电影网

本站内容由用户自主分享和转载自互联网,转载目的在于传递更多信息,并不代表本网赞同其观点和对其真实性负责。

如有侵权、违反国家法律政策行为,请联系我们,我们会第一时间及时清除和处理!

举报反馈邮箱:[email protected]

快速回复 返回顶部 返回列表