找回密码

蓝光电影网

查看: 19|回复: 0

[爱情] 生日愿望 The.Birthday.Wish.2017.1080p.AMZN.WEBRip.DDP2.0.x264-DBS 5.57GB

[复制链接]
蓝光币
515
发表于 2019-9-6 12:14:26 | 显示全部楼层 |阅读模式


◎译  名 生日愿望
◎片  名 The Birthday Wish
◎年  代 2017
◎产  地 美国
◎类  别 恋爱
◎语  言 英语
◎上映日期 2017-01-21(美国)
◎IMDb评分  6.9/10 from 1543 users
◎IMDb链接  http://www.imdb.com/title/tt6432062
◎豆瓣评分 0/10 from 0 users
◎豆瓣链接 https://movie.douban.com/subject/26965037/
◎片  长 84分钟
◎导  演 彼得·德路易斯 Peter DeLuise
◎编  剧 Julie Perreault
◎主  演 洁西·斯克拉姆 Jessy Schram
       卢克·马可法莱恩 Luke Macfarlane
       马库斯·罗斯纳 Marcus Rosner

◎标  签 美国 | 恋爱 | 2017 | 笑剧 | 电影 | 戏剧 | Hallmark
◎简  介  
  Gwen, a director of television commercials, has mapped out her life in an attempt to be in control. That plan was devised as she never wants to be thrown for a curve like she was when she was thirteen when her father unexpectedly died. That plan includes being engaged by the time she reaches thirty, which is just around the corner. That engagement and imminent marriage will be followed by moving to Los Angeles to further her career. Alex, an image conscious on-air weatherman and Gwen's boyfriend of three years, knows of Gwen's plans, he who seemingly factors perfectly into those plans. When what Gwen envisioned will be the perfect romantic proposal from Alex not only does not materialize on her thirtieth birthday, but that a proposal from him doesn't happen in any form at all on that day, Gwen makes an off the cuff secret birthday wish to be able to see ten years into her future. Gwen does end up seeing a vision of what she assumes is supposed to be her in ten years, that vision which...
  1. Video
  2. ID                                       : 1
  3. Format                                   : AVC
  4. Format/Info                              : Advanced Video Codec
  5. Format profile                           : [email protected]
  6. Format settings                          : CABAC / 4 Ref Frames
  7. Format settings, CABAC                   : Yes
  8. Format settings, Reference frames        : 4 frames
  9. Codec ID                                 : V_MPEG4/ISO/AVC
  10. Duration                                 : 1 h 28 min
  11. Bit rate mode                            : Constant
  12. Bit rate                                 : 8 825 kb/s
  13. Nominal bit rate                         : 10 000 kb/s
  14. Width                                    : 1 920 pixels
  15. Height                                   : 1 080 pixels
  16. Display aspect ratio                     : 16:9
  17. Frame rate mode                          : Constant
  18. Frame rate                               : 23.976 (24000/1001) FPS
  19. Color space                              : YUV
  20. Chroma subsampling                       : 4:2:0
  21. Bit depth                                : 8 bits
  22. Scan type                                : Progressive
  23. Bits/(Pixel*Frame)                       : 0.178
  24. Stream size                              : 5.43 GiB (98%)
  25. Default                                  : Yes
  26. Forced                                   : No
  27. Color range                              : Limited
  28. Color primaries                          : BT.709
  29. Transfer characteristics                 : BT.709
  30. Matrix coefficients                      : BT.709
  31. Audio
  32. ID                                       : 2
  33. Format                                   : E-AC-3
  34. Format/Info                              : Enhanced AC-3
  35. Commercial name                          : Dolby Digital Plus
  36. Codec ID                                 : A_EAC3
  37. Duration                                 : 1 h 28 min
  38. Bit rate mode                            : Constant
  39. Bit rate                                 : 224 kb/s
  40. Channel(s)                               : 2 channels
  41. Channel layout                           : L R
  42. Sampling rate                            : 48.0 kHz
  43. Frame rate                               : 31.250 FPS (1536 SPF)
  44. Compression mode                         : Lossy
  45. Stream size                              : 141 MiB (2%)
  46. Language                                 : English
  47. Service kind                             : Complete Main
  48. Default                                  : Yes
  49. Forced                                   : No
复制代码






                                       
                                       

                                       
                                       
                                       




回复

使用道具 举报

懒得打字嘛,点击右侧快捷回复 【右侧内容,后台自定义】
您需要登录后才可以回帖 登录 | 立即加入

本版积分规则

Archiver|小黑屋| 蓝光电影网 |网站地图

Copyright © 2021 Comsenz Inc. Powered by 蓝光电影网

蓝光电影网

本站内容由用户自主分享和转载自互联网,转载目的在于传递更多信息,并不代表本网赞同其观点和对其真实性负责。

如有侵权、违反国家法律政策行为,请联系我们,我们会第一时间及时清除和处理!

举报反馈邮箱:[email protected]

快速回复 返回顶部 返回列表