找回密码

蓝光电影网

查看: 25|回复: 0

[爱情] 異國姻緣 Barcelona.A.Love.Untold.2016.1080p.NF.WEBRip.DDP2.0.x264-DEEP 7.01GB

[复制链接]
蓝光币
515
发表于 2019-9-5 17:30:54 | 显示全部楼层 |阅读模式


◎译  名 異國姻緣
◎片  名 Barcelona: A Love Untold
◎年  代 2016
◎产  地 菲律宾
◎类  别 恋爱
◎IMDb评分  6.9/10 from 529 users
◎IMDb链接  http://www.imdb.com/title/tt5755912
◎豆瓣评分 0/10 from 0 users
◎豆瓣链接 https://movie.douban.com/subject/26937906/
◎导  演 Olivia M. Lamasan
◎主  演 Kathryn Bernardo
       Christina Sanchez Elloso
       Joshua Garcia

◎简  介  
  A young man (Elly), still trying to get over his past relationship, meets a young woman (Mia) in Barcelona trying to run away from her past.
  1. Video
  2. ID                                       : 1
  3. Format                                   : AVC
  4. Format/Info                              : Advanced Video Codec
  5. Format profile                           : [email protected]
  6. Format settings                          : CABAC / 3 Ref Frames
  7. Format settings, CABAC                   : Yes
  8. Format settings, Reference frames        : 3 frames
  9. Codec ID                                 : V_MPEG4/ISO/AVC
  10. Duration                                 : 2 h 11 min
  11. Bit rate mode                            : Variable
  12. Bit rate                                 : 7 500 kb/s
  13. Maximum bit rate                         : 11.2 Mb/s
  14. Width                                    : 1 920 pixels
  15. Height                                   : 1 080 pixels
  16. Display aspect ratio                     : 16:9
  17. Frame rate mode                          : Constant
  18. Frame rate                               : 23.976 (24000/1001) FPS
  19. Color space                              : YUV
  20. Chroma subsampling                       : 4:2:0
  21. Bit depth                                : 8 bits
  22. Scan type                                : Progressive
  23. Bits/(Pixel*Frame)                       : 0.151
  24. Stream size                              : 6.89 GiB (98%)
  25. Writing library                          : x264 core 148 r2715 7e75228
  26. Encoding settings                        : cabac=1 / ref=3 / deblock=1:0:0 / analyse=0x1:0x111 / me=umh / subme=10 / psy=1 / psy_rd=1.00:0.00 / mixed_ref=1 / me_range=24 / chroma_me=1 / trellis=2 / 8x8dct=0 / cqm=0 / deadzone=21,11 / fast_pskip=1 / chroma_qp_offset=-2 / threads=8 / lookahead_threads=1 / sliced_threads=0 / nr=0 / decimate=1 / interlaced=0 / bluray_compat=0 / stitchable=1 / constrained_intra=0 / bframes=2 / b_pyramid=0 / b_adapt=2 / b_bias=0 / direct=3 / weightb=1 / open_gop=0 / weightp=2 / keyint=48 / keyint_min=25 / scenecut=0 / intra_refresh=0 / rc_lookahead=48 / rc=2pass / mbtree=1 / bitrate=7500 / ratetol=1.0 / qcomp=0.50 / qpmin=6 / qpmax=51 / qpstep=4 / cplxblur=20.0 / qblur=0.5 / vbv_maxrate=11250 / vbv_bufsize=15000 / nal_hrd=vbr / filler=0 / ip_ratio=1.40 / aq=1:1.00
  27. Default                                  : Yes
  28. Forced                                   : No
  29. Audio
  30. ID                                       : 2
  31. Format                                   : E-AC-3
  32. Format/Info                              : Enhanced AC-3
  33. Commercial name                          : Dolby Digital Plus
  34. Codec ID                                 : A_EAC3
  35. Duration                                 : 2 h 11 min
  36. Bit rate mode                            : Constant
  37. Bit rate                                 : 128 kb/s
  38. Channel(s)                               : 2 channels
  39. Channel layout                           : L R
  40. Sampling rate                            : 48.0 kHz
  41. Frame rate                               : 31.250 FPS (1536 SPF)
  42. Compression mode                         : Lossy
  43. Stream size                              : 121 MiB (2%)
  44. Service kind                             : Complete Main
  45. Default                                  : Yes
  46. Forced                                   : No
  47. Text #1
  48. ID                                       : 3
  49. Format                                   : UTF-8
  50. Codec ID                                 : S_TEXT/UTF8
  51. Codec ID/Info                            : UTF-8 Plain Text
  52. Duration                                 : 2 h 7 min
  53. Bit rate                                 : 39 b/s
  54. Count of elements                        : 1157
  55. Stream size                              : 36.6 KiB (0%)
  56. Language                                 : English
  57. Default                                  : Yes
  58. Forced                                   : No
  59. Text #2
  60. ID                                       : 4
  61. Format                                   : UTF-8
  62. Codec ID                                 : S_TEXT/UTF8
  63. Codec ID/Info                            : UTF-8 Plain Text
  64. Duration                                 : 2 h 11 min
  65. Bit rate                                 : 46 b/s
  66. Count of elements                        : 1563
  67. Stream size                              : 44.8 KiB (0%)
  68. Language                                 : Japanese
  69. Default                                  : No
  70. Forced                                   : No
  71. Text #3
  72. ID                                       : 5
  73. Format                                   : UTF-8
  74. Codec ID                                 : S_TEXT/UTF8
  75. Codec ID/Info                            : UTF-8 Plain Text
  76. Duration                                 : 2 h 11 min
  77. Bit rate                                 : 51 b/s
  78. Count of elements                        : 1460
  79. Stream size                              : 49.7 KiB (0%)
  80. Language                                 : Korean
  81. Default                                  : No
  82. Forced                                   : No
  83. Text #4
  84. ID                                       : 6
  85. Format                                   : UTF-8
  86. Codec ID                                 : S_TEXT/UTF8
  87. Codec ID/Info                            : UTF-8 Plain Text
  88. Duration                                 : 2 h 11 min
  89. Bit rate                                 : 113 b/s
  90. Count of elements                        : 1482
  91. Stream size                              : 109 KiB (0%)
  92. Language                                 : Thai
  93. Default                                  : No
  94. Forced                                   : No
  95. Text #5
  96. ID                                       : 7
  97. Format                                   : UTF-8
  98. Codec ID                                 : S_TEXT/UTF8
  99. Codec ID/Info                            : UTF-8 Plain Text
  100. Duration                                 : 2 h 11 min
  101. Bit rate                                 : 45 b/s
  102. Count of elements                        : 1500
  103. Stream size                              : 43.4 KiB (0%)
  104. Title                                    : Simplified
  105. Language                                 : Chinese
  106. Default                                  : No
  107. Forced                                   : No
  108. Text #6
  109. ID                                       : 8
  110. Format                                   : UTF-8
  111. Codec ID                                 : S_TEXT/UTF8
  112. Codec ID/Info                            : UTF-8 Plain Text
  113. Duration                                 : 2 h 11 min
  114. Bit rate                                 : 46 b/s
  115. Count of elements                        : 1500
  116. Stream size                              : 44.4 KiB (0%)
  117. Title                                    : Traditional
  118. Language                                 : Chinese
  119. Default                                  : No
  120. Forced                                   : No
复制代码






                                       
                                       

                                       
                                       
                                       




回复

使用道具 举报

懒得打字嘛,点击右侧快捷回复 【右侧内容,后台自定义】
您需要登录后才可以回帖 登录 | 立即加入

本版积分规则

Archiver|小黑屋| 蓝光电影网 |网站地图

Copyright © 2021 Comsenz Inc. Powered by 蓝光电影网

蓝光电影网

本站内容由用户自主分享和转载自互联网,转载目的在于传递更多信息,并不代表本网赞同其观点和对其真实性负责。

如有侵权、违反国家法律政策行为,请联系我们,我们会第一时间及时清除和处理!

举报反馈邮箱:[email protected]

快速回复 返回顶部 返回列表