找回密码

蓝光电影网

查看: 25|回复: 0

[爱情] 爱情的最后胜地 Loves.Last.Resort.2017.1080p.WEBRip.x264-RARBG 1.66GB

[复制链接]
蓝光币
515
发表于 2020-1-19 14:10:37 | 显示全部楼层 |阅读模式


◎译  名 恋爱的最初胜地 / Il resort dell'amore / 當愛再來配對
◎片  名 Love's Last Resort
◎年  代 2017
◎产  地 美国
◎类  别 恋爱
◎语  言 英语
◎上映日期 2017-06-17(西班牙)
◎IMDb评分  5.5/10 from 596 users
◎IMDb链接  https://www.imdb.com/title/tt6398360
◎豆瓣评分 0/10 from 0 users
◎豆瓣链接 https://movie.douban.com/subject/27124867/
◎片  长 86分钟
◎导  演 Brian Herzlinger
◎编  剧 Blaine Chiappetta / Melissa Rundle
◎主  演 Alix Angelis
       杰西·哈奇 Jesse Hutch
       托馬斯布襠 thomas beaudoin
       艾伦·锡克 Alan Thicke
       艾普尔·鲍白 April Bowlby
       Jamison Newlander
       Jean St. James
       鲍勃·洪诺 Bob Rumnock
       艾伦·格里尼 Ellen Greene
       Chris Fishel
       Sarah E. Davis
       George Greader
       Pat Kaye
       Libby Mueller
       Robert Quigley

◎标  签 美国 | 恋爱 | 待译
◎简  介  
  经过十年的相处,克洛伊的男友艾瑞克还没有成熟到成为她希望的汉子,为了让他改变,她分开他,她相信艾瑞克终极会回到她身旁。六个月后,艾瑞克约克洛伊吃晚饭并奉告一个消息:他再一周要成婚!克洛伊需要度假,阔别工作、生活及一切和艾瑞克有关的事物,但当她到达渡假饭馆时,她碰到了艾瑞克和他的未婚妻-他们将在这个度假胜地成婚!克洛伊深信他一时意乱情迷,她让度假村司理杭特,做她的假男友,让艾瑞克妒忌,但是,他...
  1. Video
  2. ID                                       : 1
  3. Format                                   : AVC
  4. Format/Info                              : Advanced Video Codec
  5. Format profile                           : [email protected]
  6. Format settings                          : CABAC / 4 Ref Frames
  7. Format settings, CABAC                   : Yes
  8. Format settings, Reference frames        : 4 frames
  9. Codec ID                                 : avc1
  10. Codec ID/Info                            : Advanced Video Coding
  11. Duration                                 : 1 h 26 min
  12. Bit rate                                 : 2 500 kb/s
  13. Width                                    : 1 904 pixels
  14. Height                                   : 1 064 pixels
  15. Display aspect ratio                     : 16:9
  16. Frame rate mode                          : Constant
  17. Frame rate                               : 23.976 (23976/1000) FPS
  18. Color space                              : YUV
  19. Chroma subsampling                       : 4:2:0
  20. Bit depth                                : 8 bits
  21. Scan type                                : Progressive
  22. Bits/(Pixel*Frame)                       : 0.051
  23. Stream size                              : 1.52 GiB (92%)
  24. Writing library                          : x264 core 152 r2851M ba24899
  25. Encoding settings                        : cabac=1 / ref=4 / deblock=1:-1:-1 / analyse=0x3:0x113 / me=umh / subme=9 / psy=1 / psy_rd=1.00:0.15 / mixed_ref=1 / me_range=24 / chroma_me=1 / trellis=2 / 8x8dct=1 / cqm=0 / deadzone=21,11 / fast_pskip=1 / chroma_qp_offset=-3 / threads=16 / lookahead_threads=4 / sliced_threads=0 / nr=0 / decimate=1 / interlaced=0 / bluray_compat=0 / constrained_intra=0 / bframes=3 / b_pyramid=2 / b_adapt=2 / b_bias=0 / direct=3 / weightb=1 / open_gop=0 / weightp=2 / keyint=250 / keyint_min=25 / scenecut=40 / intra_refresh=0 / rc_lookahead=50 / rc=2pass / mbtree=1 / bitrate=2500 / ratetol=1.0 / qcomp=0.60 / qpmin=0 / qpmax=69 / qpstep=4 / cplxblur=20.0 / qblur=0.5 / vbv_maxrate=31250 / vbv_bufsize=31250 / nal_hrd=none / filler=0 / ip_ratio=1.40 / aq=3:1.00
  26. Encoded date                             : UTC 2020-01-19 00:18:24
  27. Tagged date                              : UTC 2020-01-19 00:18:24
  28. Codec configuration box                  : avcC
  29. Audio
  30. ID                                       : 2
  31. Format                                   : AAC LC
  32. Format/Info                              : Advanced Audio Codec Low Complexity
  33. Codec ID                                 : mp4a-40-2
  34. Duration                                 : 1 h 26 min
  35. Duration_LastFrame                       : -11 ms
  36. Bit rate mode                            : Constant
  37. Bit rate                                 : 224 kb/s
  38. Channel(s)                               : 6 channels
  39. Channel layout                           : C L R Ls Rs LFE
  40. Sampling rate                            : 48.0 kHz
  41. Frame rate                               : 46.875 FPS (1024 SPF)
  42. Compression mode                         : Lossy
  43. Stream size                              : 139 MiB (8%)
  44. Language                                 : English
  45. Default                                  : Yes
  46. Alternate group                          : 1
  47. Encoded date                             : UTC 2020-01-19 00:18:24
  48. Tagged date                              : UTC 2020-01-19 00:18:24
复制代码






                                       
                                       

                                       
                                       
                                       




回复

使用道具 举报

懒得打字嘛,点击右侧快捷回复 【右侧内容,后台自定义】
您需要登录后才可以回帖 登录 | 立即加入

本版积分规则

Archiver|小黑屋| 蓝光电影网 |网站地图

Copyright © 2021 Comsenz Inc. Powered by 蓝光电影网

蓝光电影网

本站内容由用户自主分享和转载自互联网,转载目的在于传递更多信息,并不代表本网赞同其观点和对其真实性负责。

如有侵权、违反国家法律政策行为,请联系我们,我们会第一时间及时清除和处理!

举报反馈邮箱:[email protected]

快速回复 返回顶部 返回列表