找回密码

蓝光电影网

查看: 35|回复: 0

[爱情] 吉屋出租 现场版2019 Rent.Live.2019.1080p.WEBRip.x264-RARBG 2.58GB

[复制链接]
蓝光币
511
发表于 2019-12-11 11:07:00 | 显示全部楼层 |阅读模式


◎译  名 吉屋出租 现场版2019
◎片  名 Rent: Live
◎年  代 2019
◎产  地 美国
◎类  别 恋爱 / 音乐 / 歌舞
◎语  言 英语
◎上映日期 2019-01-27(美国)
◎IMDb评分  6.7/10 from 1478 users
◎IMDb链接  https://www.imdb.com/title/tt6881910
◎豆瓣评分 6.6/10 from 110 users
◎豆瓣链接 https://movie.douban.com/subject/30446871/
◎片  长 135分钟
◎导  演 Alex Rudzinski
◎编  剧 乔纳森·拉森 Jonathan Larson
◎主  演 凡妮莎·哈金斯 Vanessa Hudgens
       基拉·塞特尔 Keala Settle
       科雷西·克莱门斯 Kiersey Clemons
       安东尼·拉普 Anthony Rapp
       James Leyva
       乔丹·费舍 Jordan Fisher
       伊迪娜·门泽尔 Idina Menzel
       塔娜什.乔治森.卡钦维 Tinashe Jorgenson Kachingwe
       Brennin Hunt
       泰雅·迪格斯 Taye Diggs
       杰西·马丁 Jesse L. Martin
       马里奥 Mario
       布兰登·维克多·迪克森 Brandon Victor Dixon
       威尔森·杰梅因·贺雷迪亚 Wilson Jermaine Heredia
       亚当·帕斯考 Adam Pascal
       达芬妮·鲁宾-维佳 Daphne Rubin-Vega
       Emerson Collins

◎标  签 音乐剧 | 美国 | Live | 2019 | Musical | Rent | LGBTQ | 美国电影
◎简  介  
  The story of several friends in New York City facing financial poverty, homophobia, AIDS, and, of course, rent.
◎获奖情况  
  第7届美国化装及发型设想工会奖(2020)
  电视电影/出格节目类最好年月戏化装(提名)
  电视电影/出格节目类最好年月戏发型设想(提名)
  1. Video
  2. ID                                       : 1
  3. Format                                   : AVC
  4. Format/Info                              : Advanced Video Codec
  5. Format profile                           : [email protected]
  6. Format settings                          : CABAC / 4 Ref Frames
  7. Format settings, CABAC                   : Yes
  8. Format settings, Reference frames        : 4 frames
  9. Codec ID                                 : avc1
  10. Codec ID/Info                            : Advanced Video Coding
  11. Duration                                 : 2 h 15 min
  12. Bit rate                                 : 2 500 kb/s
  13. Width                                    : 1 920 pixels
  14. Height                                   : 1 080 pixels
  15. Display aspect ratio                     : 16:9
  16. Frame rate mode                          : Constant
  17. Frame rate                               : 23.976 (23976/1000) FPS
  18. Color space                              : YUV
  19. Chroma subsampling                       : 4:2:0
  20. Bit depth                                : 8 bits
  21. Scan type                                : Progressive
  22. Bits/(Pixel*Frame)                       : 0.050
  23. Stream size                              : 2.36 GiB (92%)
  24. Writing library                          : x264 core 152 r2851M ba24899
  25. Encoding settings                        : cabac=1 / ref=4 / deblock=1:-1:-1 / analyse=0x3:0x113 / me=umh / subme=9 / psy=1 / psy_rd=1.00:0.15 / mixed_ref=1 / me_range=24 / chroma_me=1 / trellis=2 / 8x8dct=1 / cqm=0 / deadzone=21,11 / fast_pskip=1 / chroma_qp_offset=-3 / threads=16 / lookahead_threads=4 / sliced_threads=0 / nr=0 / decimate=1 / interlaced=0 / bluray_compat=0 / constrained_intra=0 / bframes=3 / b_pyramid=2 / b_adapt=2 / b_bias=0 / direct=3 / weightb=1 / open_gop=0 / weightp=2 / keyint=250 / keyint_min=25 / scenecut=40 / intra_refresh=0 / rc_lookahead=50 / rc=2pass / mbtree=1 / bitrate=2500 / ratetol=1.0 / qcomp=0.60 / qpmin=0 / qpmax=69 / qpstep=4 / cplxblur=20.0 / qblur=0.5 / vbv_maxrate=31250 / vbv_bufsize=31250 / nal_hrd=none / filler=0 / ip_ratio=1.40 / aq=3:1.00
  26. Encoded date                             : UTC 2019-12-11 01:58:22
  27. Tagged date                              : UTC 2019-12-11 01:58:22
  28. Codec configuration box                  : avcC
  29. Audio
  30. ID                                       : 2
  31. Format                                   : AAC LC
  32. Format/Info                              : Advanced Audio Codec Low Complexity
  33. Codec ID                                 : mp4a-40-2
  34. Duration                                 : 2 h 15 min
  35. Bit rate mode                            : Constant
  36. Bit rate                                 : 224 kb/s
  37. Channel(s)                               : 6 channels
  38. Channel layout                           : C L R Ls Rs LFE
  39. Sampling rate                            : 48.0 kHz
  40. Frame rate                               : 46.875 FPS (1024 SPF)
  41. Compression mode                         : Lossy
  42. Stream size                              : 217 MiB (8%)
  43. Language                                 : English
  44. Default                                  : Yes
  45. Alternate group                          : 1
  46. Encoded date                             : UTC 2019-12-11 01:58:22
  47. Tagged date                              : UTC 2019-12-11 01:58:22
复制代码






                                       
                                       

                                       
                                       
                                       




回复

使用道具 举报

懒得打字嘛,点击右侧快捷回复 【右侧内容,后台自定义】
您需要登录后才可以回帖 登录 | 立即加入

本版积分规则

Archiver|小黑屋| 蓝光电影网 |网站地图

Copyright © 2021 Comsenz Inc. Powered by 蓝光电影网

蓝光电影网

本站内容由用户自主分享和转载自互联网,转载目的在于传递更多信息,并不代表本网赞同其观点和对其真实性负责。

如有侵权、违反国家法律政策行为,请联系我们,我们会第一时间及时清除和处理!

举报反馈邮箱:[email protected]

快速回复 返回顶部 返回列表