找回密码

蓝光电影网

查看: 7|回复: 0

[动作] 狐蝠 Woo.Fook.1977.1080p.WEBRip.x264-RARBG 1.96GB

[复制链接]
蓝光币
515
发表于 2019-6-4 01:19:54 | 显示全部楼层 |阅读模式


◎译  名 Fox Bat / Woo fook
◎片  名 狐蝠
◎年  代 1977
◎产  地 香港
◎类  别 行动
◎语  言 英语 / 粤语 / 汉语普通话
◎上映日期 1977-12-15
◎IMDb评分  5.2/10 from 84 users
◎IMDb链接  http://www.imdb.com/title/tt0076049
◎豆瓣评分 0/10 from 0 users
◎豆瓣链接 https://movie.douban.com/subject/1303004/
◎片  长 UK: 107 分钟
◎导  演 梁普智 Po-Chih Leong
◎编  剧 陈欣建 (Philip Chan) / 梁普智
◎主  演 伊雷 James Yi Lui
      陈欣健 Philip Chan
      嘉伦 Ga Lun
      乔宏 Roy Chiao
      黄锦燊 Melvin Wong
      林偉棋
      元华 Wah Yuen

◎标  签 梁普智 | 香港电影 | 香港 | 1977 | 陈欣健 | 老港片 | 行动 | 乔宏
◎简  介  
  由中国人投资建造的而在题材上走国际线路的一部典型的特务行动片。男配角亨利是美国中心情报局的干员,他用奇妙的手法获得狐蝠战役机的珍贵材料,但却存有异心,要将此材料在国际情报市场中高价拍卖投机。因而,各路豪杰都来到折卖地香港,展开了一场又一场的枪战追逐。最初却发现,本来全部事都是中心情报局设下的圈套而已。导演梁普智处置行动排场的手法是颇具国际水准的。单就拍摄成就而论,它也是形胜于质的。本片的几个配角,都有是徒具一个概况的身份,而没有属于小我的内在天下。此外,本片轻忽中国观众的口胃。并缺少了朴质的血肉之感。
  1. Video
  2. ID                                       : 1
  3. Format                                   : AVC
  4. Format/Info                              : Advanced Video Codec
  5. Format profile                           : [email protected]
  6. Format settings                          : CABAC / 4 Ref Frames
  7. Format settings, CABAC                   : Yes
  8. Format settings, ReFrames                : 4 frames
  9. Codec ID                                 : avc1
  10. Codec ID/Info                            : Advanced Video Coding
  11. Duration                                 : 1 h 42 min
  12. Bit rate                                 : 2 500 kb/s
  13. Width                                    : 1 920 pixels
  14. Height                                   : 1 080 pixels
  15. Display aspect ratio                     : 16:9
  16. Frame rate mode                          : Constant
  17. Frame rate                               : 29.970 (29970/1000) FPS
  18. Color space                              : YUV
  19. Chroma subsampling                       : 4:2:0
  20. Bit depth                                : 8 bits
  21. Scan type                                : Progressive
  22. Bits/(Pixel*Frame)                       : 0.040
  23. Stream size                              : 1.79 GiB (91%)
  24. Writing library                          : x264 core 152 r2851M ba24899
  25. Encoding settings                        : cabac=1 / ref=4 / deblock=1:-1:-1 / analyse=0x3:0x113 / me=umh / subme=9 / psy=1 / psy_rd=1.00:0.15 / mixed_ref=1 / me_range=24 / chroma_me=1 / trellis=2 / 8x8dct=1 / cqm=0 / deadzone=21,11 / fast_pskip=1 / chroma_qp_offset=-3 / threads=32 / lookahead_threads=4 / sliced_threads=0 / nr=0 / decimate=1 / interlaced=0 / bluray_compat=0 / constrained_intra=0 / bframes=3 / b_pyramid=2 / b_adapt=2 / b_bias=0 / direct=3 / weightb=1 / open_gop=0 / weightp=2 / keyint=250 / keyint_min=25 / scenecut=40 / intra_refresh=0 / rc_lookahead=50 / rc=2pass / mbtree=1 / bitrate=2500 / ratetol=1.0 / qcomp=0.60 / qpmin=0 / qpmax=69 / qpstep=4 / cplxblur=20.0 / qblur=0.5 / vbv_maxrate=31250 / vbv_bufsize=31250 / nal_hrd=none / filler=0 / ip_ratio=1.40 / aq=3:1.00
  26. Encoded date                             : UTC 2019-06-03 15:24:55
  27. Tagged date                              : UTC 2019-06-03 15:24:55
  28. Codec configuration box                  : avcC
  29. Audio
  30. ID                                       : 2
  31. Format                                   : AAC LC
  32. Format/Info                              : Advanced Audio Codec Low Complexity
  33. Codec ID                                 : mp4a-40-2
  34. Duration                                 : 1 h 42 min
  35. Bit rate mode                            : Constant
  36. Bit rate                                 : 224 kb/s
  37. Channel(s)                               : 2 channels
  38. Channel layout                           : L R
  39. Sampling rate                            : 48.0 kHz
  40. Frame rate                               : 46.875 FPS (1024 SPF)
  41. Compression mode                         : Lossy
  42. Stream size                              : 164 MiB (8%)
  43. Language                                 : English
  44. Default                                  : Yes
  45. Alternate group                          : 1
  46. Encoded date                             : UTC 2019-06-03 15:24:55
  47. Tagged date                              : UTC 2019-06-03 15:24:55
复制代码






                                       
                                       

                                       
                                       
                                       




回复

使用道具 举报

懒得打字嘛,点击右侧快捷回复 【右侧内容,后台自定义】
您需要登录后才可以回帖 登录 | 立即加入

本版积分规则

Archiver|小黑屋| 蓝光电影网 |网站地图

Copyright © 2021 Comsenz Inc. Powered by 蓝光电影网

蓝光电影网

本站内容由用户自主分享和转载自互联网,转载目的在于传递更多信息,并不代表本网赞同其观点和对其真实性负责。

如有侵权、违反国家法律政策行为,请联系我们,我们会第一时间及时清除和处理!

举报反馈邮箱:[email protected]

快速回复 返回顶部 返回列表