找回密码

蓝光电影网

查看: 20|回复: 0

[爱情] 快节奏/致命第三情 Tempo.2003.1080p.AMZN.WEBRip.DDP5.1.x264-ABM 6.63GB

[复制链接]
蓝光币
511
发表于 2020-10-22 16:28:07 | 显示全部楼层 |阅读模式


◎译  名 快节奏/致命第三情 (台)
◎片  名 Tempo
◎年  代 2003
◎产  地 加拿大,法国,卢森堡,英国
◎类  别 恋爱 / 惊悚 / 犯罪
◎语  言 英语
◎上映日期 2003-06-10(加拿大)
◎IMDb评分  4.7/10 from 908 users
◎IMDb链接  https://www.imdb.com/title/tt0307553/
◎豆瓣评分 4.9/10 from 72 users
◎豆瓣链接 https://movie.douban.com/subject/1427812/
◎片  长 85分钟
◎导  演 埃里克·斯泰尔斯 Eric Styles
◎编  剧 詹妮弗·绍特 Jennifer Salt
◎主  演 阿特·马里克 Art Malik
       休·丹西 Hugh Dancy
       马尔科姆·麦克道威尔 Malcolm McDowell
       Ambroise Gayet
       安德列·奥曼斯基 André Oumansky
       米歇尔·阿尔贝蒂尼 Michel Albertini
       梅兰尼·格里菲斯 Melanie Griffith
       瑞切尔·蕾·库克 Rachael Leigh Cook
       大卫·拉艾 David La Haye
◎标  签 HughDancy | 犯罪 | 法国 | 2003 | 英国 | 法国电影 | 恋爱 | Hugh
◎简  介


  历练丰富的奥秘女子莎拉处置销赃的工作,经常地往返欧洲。偶然的际遇让他的男友杰克相逢了美丽的门生珍妮,两人马上堕入热恋;于此同时,莎拉的生命却堕入危难又发现杰克对她不忠,心里极端失望。杰克能否能化解危机拯救莎拉,找到真爱?
  1. Video
  2. ID                                       : 1
  3. Format                                   : AVC
  4. Format/Info                              : Advanced Video Codec
  5. Format profile                           : [email protected]
  6. Format settings                          : CABAC / 4 Ref Frames
  7. Format settings, CABAC                   : Yes
  8. Format settings, Reference frames        : 4 frames
  9. Codec ID                                 : V_MPEG4/ISO/AVC
  10. Duration                                 : 1 h 22 min
  11. Bit rate mode                            : Variable
  12. Bit rate                                 : 10.8 Mb/s
  13. Maximum bit rate                         : 15.0 Mb/s
  14. Width                                    : 1 920 pixels
  15. Height                                   : 1 040 pixels
  16. Display aspect ratio                     : 1.85:1
  17. Frame rate mode                          : Constant
  18. Frame rate                               : 23.976 (24000/1001/189150) FPS
  19. Color space                              : YUV
  20. Chroma subsampling                       : 4:2:0
  21. Bit depth                                : 8 bits
  22. Scan type                                : Progressive
  23. Bits/(Pixel*Frame)                       : 0.226
  24. Stream size                              : 6.25 GiB (94%)
  25. Default                                  : Yes
  26. Forced                                   : No
  27. Color range                              : Limited
  28. Color primaries                          : BT.709
  29. Transfer characteristics                 : BT.709
  30. Matrix coefficients                      : BT.709
  31. Audio
  32. ID                                       : 2
  33. Format                                   : E-AC-3
  34. Format/Info                              : Enhanced AC-3
  35. Commercial name                          : Dolby Digital Plus
  36. Codec ID                                 : A_EAC3
  37. Duration                                 : 1 h 22 min
  38. Bit rate mode                            : Constant
  39. Bit rate                                 : 640 kb/s
  40. Channel(s)                               : 6 channels
  41. Channel layout                           : L R C LFE Ls Rs
  42. Sampling rate                            : 48.0 kHz
  43. Frame rate                               : 31.250 FPS (1536 SPF)
  44. Compression mode                         : Lossy
  45. Stream size                              : 380 MiB (6%)
  46. Language                                 : English
  47. Service kind                             : Complete Main
  48. Default                                  : Yes
  49. Forced                                   : No
  50. Text #1
  51. ID                                       : 3
  52. Format                                   : UTF-8
  53. Codec ID                                 : S_TEXT/UTF8
  54. Codec ID/Info                            : UTF-8 Plain Text
  55. Duration                                 : 1 h 17 min
  56. Bit rate                                 : 44 b/s
  57. Count of elements                        : 912
  58. Stream size                              : 25.2 KiB (0%)
  59. Language                                 : English
  60. Default                                  : No
  61. Forced                                   : No
  62. Text #2
  63. ID                                       : 4
  64. Format                                   : UTF-8
  65. Codec ID                                 : S_TEXT/UTF8
  66. Codec ID/Info                            : UTF-8 Plain Text
  67. Duration                                 : 1 h 18 min
  68. Bit rate                                 : 45 b/s
  69. Count of elements                        : 967
  70. Stream size                              : 26.3 KiB (0%)
  71. Title                                    : SDH
  72. Language                                 : English
  73. Default                                  : No
  74. Forced                                   : No
复制代码






                                       
                                       

                                       
                                       
                                       




回复

使用道具 举报

懒得打字嘛,点击右侧快捷回复 【右侧内容,后台自定义】
您需要登录后才可以回帖 登录 | 立即加入

本版积分规则

Archiver|小黑屋| 蓝光电影网 |网站地图

Copyright © 2021 Comsenz Inc. Powered by 蓝光电影网

蓝光电影网

本站内容由用户自主分享和转载自互联网,转载目的在于传递更多信息,并不代表本网赞同其观点和对其真实性负责。

如有侵权、违反国家法律政策行为,请联系我们,我们会第一时间及时清除和处理!

举报反馈邮箱:[email protected]

快速回复 返回顶部 返回列表