找回密码

蓝光电影网

查看: 74|回复: 0

[爱情] 打噴嚏 A.Choo.2020.CHINESE.1080p.NF.WEBRip.DDP5.1.x264-AREY 4.24GB

[复制链接]
蓝光币
623
发表于 2020-10-17 22:48:10 | 显示全部楼层 |阅读模式


◎译  名 不倒侠/A Choo/我的情敌是超人
◎片  名 打噴嚏
◎年  代 2020
◎产  地 中国台湾
◎类  别 恋爱 / 科幻
◎语  言 汉语普通话
◎上映日期 2020-07-05(台北电影节) / 2020-07-15(中国台湾)
◎IMDb评分  5.6/10 from 52 users
◎IMDb链接  https://www.imdb.com/title/tt12689526/
◎豆瓣评分 /10 from 0 users
◎豆瓣链接 https://movie.douban.com/subject/24875519/
◎导  演 柯孟融 Kevin Ko / 戚家基 Peter Tsi
◎编  剧 九把刀 Giddens Ko
◎主  演 柯震东 Kai Ko
       林依晨 Ariel Lin
       张晓龙 Xiaolong Zhang
       王大陆 Talu Wang
       吴建豪 Vanness Wu
       古天乐 Louis Koo
       苏品杰 Jay Su
       叶熙祺 Xiqi Ye
       徐子珊 Kate Tsui
       周亭羽 Tiffany Chou
◎标  签 柯震东 | 九把刀 | 林依晨 | 台湾电影 | 台湾 | 恋爱 | 等了好多年 | 电影
◎简  介


  这是一个存在超级豪杰的城市。
  
  在孤儿院,义智(柯震东 饰)碰见了心心姐姐(林依晨 饰)。只要义智想她,她就会打喷嚏。
  
  长大的义智,为了爱,他要酿成最勇敢的汉子!他意外成为拳击场上的“不倒侠”,意外出现超人情敌,音波侠(张晓龙 饰);把稳心堕入危机,他终究大白自己存在的意义。他永久不能成为超级豪杰,但他永久是心心姐姐的专属超人。
◎获奖情况
  第57届台北金马影展 ?(2020)
  金马奖最好行动设想(提名) 张鹏
  1. Video
  2. ID                                       : 1
  3. Format                                   : AVC
  4. Format/Info                              : Advanced Video Codec
  5. Format profile                           : [email protected]
  6. Format settings                          : CABAC / 3 Ref Frames
  7. Format settings, CABAC                   : Yes
  8. Format settings, Reference frames        : 3 frames
  9. Codec ID                                 : V_MPEG4/ISO/AVC
  10. Duration                                 : 1 h 41 min
  11. Bit rate mode                            : Variable
  12. Bit rate                                 : 5 360 kb/s
  13. Maximum bit rate                         : 8 040 kb/s
  14. Width                                    : 1 920 pixels
  15. Height                                   : 1 080 pixels
  16. Display aspect ratio                     : 16:9
  17. Frame rate mode                          : Constant
  18. Frame rate                               : 24.000 FPS
  19. Color space                              : YUV
  20. Chroma subsampling                       : 4:2:0
  21. Bit depth                                : 8 bits
  22. Scan type                                : Progressive
  23. Bits/(Pixel*Frame)                       : 0.108
  24. Stream size                              : 3.78 GiB (89%)
  25. Writing library                          : x264 core 148 r2722 1b0121b
  26. Encoding settings                        : cabac=1 / ref=3 / deblock=1:0:0 / analyse=0x1:0x111 / me=umh / subme=10 / psy=1 / psy_rd=1.00:0.00 / mixed_ref=1 / me_range=24 / chroma_me=1 / trellis=2 / 8x8dct=0 / cqm=0 / deadzone=21,11 / fast_pskip=1 / chroma_qp_offset=-2 / threads=8 / lookahead_threads=1 / sliced_threads=0 / nr=0 / decimate=1 / interlaced=0 / bluray_compat=0 / stitchable=1 / constrained_intra=0 / bframes=2 / b_pyramid=0 / b_adapt=2 / b_bias=0 / direct=3 / weightb=1 / open_gop=0 / weightp=2 / keyint=250 / keyint_min=24 / scenecut=0 / intra_refresh=0 / rc_lookahead=48 / rc=2pass / mbtree=1 / bitrate=5360 / ratetol=1.0 / qcomp=0.50 / qpmin=6 / qpmax=51 / qpstep=4 / cplxblur=20.0 / qblur=0.5 / vbv_maxrate=8040 / vbv_bufsize=10720 / nal_hrd=vbr / filler=0 / ip_ratio=1.40 / aq=1:1.00
  27. Default                                  : Yes
  28. Forced                                   : No
  29. Audio
  30. ID                                       : 2
  31. Format                                   : E-AC-3
  32. Format/Info                              : Enhanced AC-3
  33. Commercial name                          : Dolby Digital Plus
  34. Codec ID                                 : A_EAC3
  35. Duration                                 : 1 h 41 min
  36. Bit rate mode                            : Constant
  37. Bit rate                                 : 640 kb/s
  38. Channel(s)                               : 6 channels
  39. Channel layout                           : L R C LFE Ls Rs
  40. Sampling rate                            : 48.0 kHz
  41. Frame rate                               : 31.250 FPS (1536 SPF)
  42. Compression mode                         : Lossy
  43. Stream size                              : 464 MiB (11%)
  44. Title                                    : 国语 (臺灣) [Original]
  45. Language                                 : Chinese
  46. Service kind                             : Complete Main
  47. Default                                  : Yes
  48. Forced                                   : No
  49. Text #1
  50. ID                                       : 3
  51. Format                                   : UTF-8
  52. Codec ID                                 : S_TEXT/UTF8
  53. Codec ID/Info                            : UTF-8 Plain Text
  54. Duration                                 : 1 h 40 min
  55. Bit rate                                 : 49 b/s
  56. Count of elements                        : 1381
  57. Stream size                              : 36.5 KiB (0%)
  58. Title                                    : English
  59. Language                                 : English
  60. Default                                  : Yes
  61. Forced                                   : No
  62. Text #2
  63. ID                                       : 4
  64. Format                                   : UTF-8
  65. Codec ID                                 : S_TEXT/UTF8
  66. Codec ID/Info                            : UTF-8 Plain Text
  67. Duration                                 : 1 h 40 min
  68. Bit rate                                 : 76 b/s
  69. Count of elements                        : 1392
  70. Stream size                              : 56.0 KiB (0%)
  71. Title                                    : ???????
  72. Language                                 : Arabic
  73. Default                                  : No
  74. Forced                                   : No
  75. Text #3
  76. ID                                       : 5
  77. Format                                   : UTF-8
  78. Codec ID                                 : S_TEXT/UTF8
  79. Codec ID/Info                            : UTF-8 Plain Text
  80. Duration                                 : 1 h 40 min
  81. Bit rate                                 : 57 b/s
  82. Count of elements                        : 1509
  83. Stream size                              : 42.1 KiB (0%)
  84. Title                                    : Indonesia
  85. Language                                 : Indonesian
  86. Default                                  : No
  87. Forced                                   : No
  88. Text #4
  89. ID                                       : 6
  90. Format                                   : UTF-8
  91. Codec ID                                 : S_TEXT/UTF8
  92. Codec ID/Info                            : UTF-8 Plain Text
  93. Duration                                 : 1 h 40 min
  94. Bit rate                                 : 48 b/s
  95. Count of elements                        : 1435
  96. Stream size                              : 35.6 KiB (0%)
  97. Title                                    : 日本語
  98. Language                                 : Japanese
  99. Default                                  : No
  100. Forced                                   : No
  101. Text #5
  102. ID                                       : 7
  103. Format                                   : UTF-8
  104. Codec ID                                 : S_TEXT/UTF8
  105. Codec ID/Info                            : UTF-8 Plain Text
  106. Duration                                 : 1 h 40 min
  107. Bit rate                                 : 64 b/s
  108. Count of elements                        : 1498
  109. Stream size                              : 47.0 KiB (0%)
  110. Title                                    : ???
  111. Language                                 : Korean
  112. Default                                  : No
  113. Forced                                   : No
  114. Text #6
  115. ID                                       : 8
  116. Format                                   : UTF-8
  117. Codec ID                                 : S_TEXT/UTF8
  118. Codec ID/Info                            : UTF-8 Plain Text
  119. Duration                                 : 1 h 40 min
  120. Bit rate                                 : 55 b/s
  121. Count of elements                        : 1388
  122. Stream size                              : 41.0 KiB (0%)
  123. Title                                    : Melayu
  124. Language                                 : Malay
  125. Default                                  : No
  126. Forced                                   : No
  127. Text #7
  128. ID                                       : 9
  129. Format                                   : UTF-8
  130. Codec ID                                 : S_TEXT/UTF8
  131. Codec ID/Info                            : UTF-8 Plain Text
  132. Duration                                 : 1 h 40 min
  133. Bit rate                                 : 136 b/s
  134. Count of elements                        : 1464
  135. Stream size                              : 100 KiB (0%)
  136. Title                                    : ???
  137. Language                                 : Thai
  138. Default                                  : No
  139. Forced                                   : No
  140. Text #8
  141. ID                                       : 10
  142. Format                                   : UTF-8
  143. Codec ID                                 : S_TEXT/UTF8
  144. Codec ID/Info                            : UTF-8 Plain Text
  145. Duration                                 : 1 h 40 min
  146. Bit rate                                 : 71 b/s
  147. Count of elements                        : 1382
  148. Stream size                              : 52.6 KiB (0%)
  149. Title                                    : Ti?ng Vi?t
  150. Language                                 : Vietnamese
  151. Default                                  : No
  152. Forced                                   : No
  153. Text #9
  154. ID                                       : 11
  155. Format                                   : UTF-8
  156. Codec ID                                 : S_TEXT/UTF8
  157. Codec ID/Info                            : UTF-8 Plain Text
  158. Duration                                 : 1 h 40 min
  159. Bit rate                                 : 51 b/s
  160. Count of elements                        : 1549
  161. Stream size                              : 37.8 KiB (0%)
  162. Title                                    : 中文(简体)
  163. Language                                 : Chinese
  164. Default                                  : No
  165. Forced                                   : No
  166. Text #10
  167. ID                                       : 12
  168. Format                                   : UTF-8
  169. Codec ID                                 : S_TEXT/UTF8
  170. Codec ID/Info                            : UTF-8 Plain Text
  171. Duration                                 : 1 h 35 min
  172. Bit rate                                 : 53 b/s
  173. Count of elements                        : 1511
  174. Stream size                              : 37.4 KiB (0%)
  175. Title                                    : 中文(繁體)
  176. Language                                 : Chinese
  177. Default                                  : No
  178. Forced                                   : No
复制代码






                                       
                                       

                                       
                                       
                                       




回复

使用道具 举报

懒得打字嘛,点击右侧快捷回复 【右侧内容,后台自定义】
您需要登录后才可以回帖 登录 | 立即加入

本版积分规则

Archiver|小黑屋| 蓝光电影网 |网站地图

Copyright © 2021 Comsenz Inc. Powered by 蓝光电影网

蓝光电影网

本站内容由用户自主分享和转载自互联网,转载目的在于传递更多信息,并不代表本网赞同其观点和对其真实性负责。

如有侵权、违反国家法律政策行为,请联系我们,我们会第一时间及时清除和处理!

举报反馈邮箱:[email protected]

快速回复 返回顶部 返回列表