找回密码

蓝光电影网

查看: 23|回复: 0

[爱情] 乱世英杰/乱世英雄 The.Plainsman.1936.1080p.AMZN.WEBRip.DDP2.0.x264-SbR 10.71GB

[复制链接]
蓝光币
511
发表于 2020-10-6 18:30:27 | 显示全部楼层 |阅读模式


◎译  名 浊世英杰/浊世豪杰
◎片  名 The Plainsman
◎年  代 1936
◎产  地 美国
◎类  别 恋爱 / 列传 / 历史 / 战争 / 西部
◎语  言 英语
◎上映日期 1936-11-16
◎IMDb评分  6.9/10 from 1935 users
◎IMDb链接  https://www.imdb.com/title/tt0028108/
◎豆瓣评分 /10 from 0 users
◎豆瓣链接 https://movie.douban.com/subject/1305198/
◎片  长 113 分钟
◎导  演 塞西尔·B·戴米尔 Cecil B. DeMille
◎编  剧 瓦尔德马·扬 Waldemar Young / 哈罗德·莱姆 Harold Lamb / 林恩·瑞格斯 Lynn Riggs / 简妮·麦克弗森 Jeanie Macpherson / Courtney Ryley Cooper / 格罗弗·琼斯 Grover Jones / Frank J. Wilstach
◎主  演 加里·库珀 Gary Cooper
       琪恩·亚瑟 Jean Arthur
       詹姆斯·埃利森 James Ellison
       约翰·米利扬 John Miljan
       埃德温·马克斯韦尔 Edwin Maxwell
       Paul Newlan
       Nelson McDowell
       沃尔特·麦克格莱尔 Walter McGrail
       吉姆·梅森 Jim Mason
       George MacQuarrie
       Leila McIntyre
       Billy McClain
       弗朗西斯·麦克唐纳 Francis McDonald
       Wilbur Mack
       Frank McGlynn Sr.
       波特·霍尔 Porter Hall
       保罗·哈维 Paul Harvey
       小本·亨德里克斯 Ben Hendricks Jr.
       Duke R. Lee
       查尔斯·裘德尔斯 Charles Judels
       William Humphrey
       诺贝·约翰逊 Noble Johnson
       Sydney Jarvis
       Jane Keckley
       Cecil Kellogg
       Wadsworth Harris
       Curtis Nero
       特德·奥利弗 Ted Oliver
       雷云酋长 Chief Thundercloud
       Arthur Singley
       Blackjack Ward
       布卢·华盛顿 Blue Washington
       Jack Walters
       Bruce Warren
       Greg Whitespear
       Harry Woods
       汉克·沃登 Hank Worden
       斯坦诺普·惠特克罗夫特 Stanhope Wheatcroft
       Robert Wilber
       Charles Stevens
       哈里·斯塔布斯 Harry Stubbs
       珀内尔·普拉特 Purnell Pratt
       巴德·奥斯博内 Bud Osborne
       Pat Moriarity
       Jimmy Phillips
       Gertrude Norman
       路易·纳托 Louis Natheaux
       Richard Robles
       Gail Sheridan
       Francis Sayles
       Don Rowan
       William Royle
       Philo McCullough
       Wesley Giraud
       乔纳森·哈勒 Jonathan Hale
       福兹·奈特 Fuzzy Knight
       蒙蒂·布卢 Monte Blue
       莱恩·钱德勒 Lane Chandler
       斯坦利·安德鲁斯 Stanley Andrews
       欧文·培根 Irving Bacon
       Earl Askam
       Lona Andre
       理查德·亚历山大 Richard Alexander
       Hooper Atchley
       亚瑟·埃尔斯沃斯 Arthur Aylesworth
       Sherwood Bailey
       安东尼·奎恩 Anthony Quinn
       道格拉斯·伍德 Douglas Wood
       丹尼斯·欧基夫 Dennis O'Keefe
       维克特·凡科尼 Victor Varconi
       弗莱德·科勒 Fred Kohler
       Oscar Rudolph
       弗兰克·艾伯森 Frank Albertson
       马克·斯特朗 Mark Strong (I)
       约翰·海姆斯 John Hyams
       查尔斯·比克福德 Charles Bickford
       弗朗西斯·福特 Francis Ford
       卡尔·米勒 Carl Miller
       Granville Bates
       Hank Bell
       Edward W. Borman
       George Ernest
       富兰克林·法纳姆 Franklyn Farnum
       Tex Driscoll
       Max Davidson
       巴德·法恩 Budd Fine
       弗兰克·埃利斯 Frank Ellis
       Edgar Dearing
       加比·海斯 George 'Gabby' Hayes
       Charles Herzinger
       Bryan 'Slim' Hightower
       Jack Clifford
       Bob Burns
       Jess Cavin
       Irene Bennett
       George Cleveland
       Sidney D'Albrook
       埃弗雷特·布朗 Everett Brown
       Frank Cordell
       海伦·伯吉斯 Helen Burgess
       Colin Chase
       戴维森·克拉克 Davison Clark
       巴克·康纳斯 Buck Connors
       大卫·克莱德 David Clyde
       Sonny Chorre
       Kenneth Gibson
◎标  签 西部 | 西部片 | 美国 | 1930s | 战争 | 列传 | Cecil_B_DeMille | 塞西尔·B·戴米尔
◎简  介


  With the end of the North American Civil War, the manufacturers of repeating rifles find a profitable means of making money selling the weapons to the North American Indians, using the front man John Lattimer to sell the rifles to the Cheyenne. While traveling in a stagecoach with Calamity Jane and William "Buffalo Bill" Cody and his young wife Louisa Cody that want to settle down in Hays City managing a hotel, Wild Bill Hickok finds the guide Breezy wounded by arrows and telling that the Indians are attacking a fort using repeating rifles. Hickok meets Gen. George A. Custer that assigns Buffalo Bill to guide a troop with ammunition to help the fort. Meanwhile the Cheyenne kidnap Calamity Jane, forcing Hickok to expose himself to rescue her.
  1. Video
  2. ID                                       : 1
  3. Format                                   : AVC
  4. Format/Info                              : Advanced Video Codec
  5. Format profile                           : [email protected]
  6. Format settings                          : CABAC / 4 Ref Frames
  7. Format settings, CABAC                   : Yes
  8. Format settings, Reference frames        : 4 frames
  9. Codec ID                                 : V_MPEG4/ISO/AVC
  10. Duration                                 : 1 h 53 min
  11. Bit rate mode                            : Variable
  12. Bit rate                                 : 13.3 Mb/s
  13. Maximum bit rate                         : 15.0 Mb/s
  14. Width                                    : 1 920 pixels
  15. Height                                   : 1 080 pixels
  16. Display aspect ratio                     : 16:9
  17. Frame rate mode                          : Constant
  18. Frame rate                               : 23.976 (24000/1001/189150) FPS
  19. Color space                              : YUV
  20. Chroma subsampling                       : 4:2:0
  21. Bit depth                                : 8 bits
  22. Scan type                                : Progressive
  23. Bits/(Pixel*Frame)                       : 0.267
  24. Stream size                              : 10.5 GiB (98%)
  25. Language                                 : English
  26. Default                                  : Yes
  27. Forced                                   : No
  28. Color range                              : Limited
  29. Color primaries                          : BT.709
  30. Transfer characteristics                 : BT.709
  31. Matrix coefficients                      : BT.709
  32. Audio
  33. ID                                       : 2
  34. Format                                   : E-AC-3
  35. Format/Info                              : Enhanced AC-3
  36. Commercial name                          : Dolby Digital Plus
  37. Codec ID                                 : A_EAC3
  38. Duration                                 : 1 h 53 min
  39. Bit rate mode                            : Constant
  40. Bit rate                                 : 224 kb/s
  41. Channel(s)                               : 2 channels
  42. Channel layout                           : L R
  43. Sampling rate                            : 48.0 kHz
  44. Frame rate                               : 31.250 FPS (1536 SPF)
  45. Compression mode                         : Lossy
  46. Stream size                              : 182 MiB (2%)
  47. Language                                 : English
  48. Service kind                             : Complete Main
  49. Default                                  : Yes
  50. Forced                                   : No
  51. Text #1
  52. ID                                       : 3
  53. Format                                   : UTF-8
  54. Codec ID                                 : S_TEXT/UTF8
  55. Codec ID/Info                            : UTF-8 Plain Text
  56. Duration                                 : 1 h 49 min
  57. Bit rate                                 : 73 b/s
  58. Count of elements                        : 1446
  59. Stream size                              : 58.9 KiB (0%)
  60. Language                                 : English
  61. Default                                  : No
  62. Forced                                   : No
  63. Text #2
  64. ID                                       : 4
  65. Format                                   : UTF-8
  66. Codec ID                                 : S_TEXT/UTF8
  67. Codec ID/Info                            : UTF-8 Plain Text
  68. Duration                                 : 1 h 49 min
  69. Bit rate                                 : 79 b/s
  70. Count of elements                        : 1605
  71. Stream size                              : 63.7 KiB (0%)
  72. Title                                    : SDH
  73. Language                                 : English
  74. Default                                  : No
  75. Forced                                   : No
  76. Menu
  77. 00:00:00.000                             : en:01. Go West, Young Man (Main Titles)
  78. 00:07:35.455                             : en:02. Wild Bill & Buffalo Bill
  79. 00:14:24.280                             : en:03. Ante Up
  80. 00:19:48.896                             : en:04. Calamity Jane
  81. 00:27:06.166                             : en:05. Reporting to General Custer
  82. 00:31:30.222                             : en:06. Doing My Part
  83. 00:37:20.363                             : en:07. Uninvited Guests
  84. 00:43:23.392                             : en:08. Captured
  85. 00:47:43.360                             : en:09. Tortured for the Truth
  86. 00:56:32.764                             : en:10. Under Siege
  87. 01:06:12.260                             : en:11. Here Comes the Cavalry
  88. 01:14:06.192                             : en:12. Let Bullets Fly
  89. 01:21:00.314                             : en:13. Dead or Alive
  90. 01:27:47.512                             : en:14. I\'m Bringing You Back
  91. 01:35:41.945                             : en:15. Meet Me in Deadwood
  92. 01:39:56.824                             : en:16. Times Are Changing
  93. 01:45:27.905                             : en:17. Playing His Own Hand
  94. 01:52:42.547                             : en:18. End Titles
复制代码






                                       
                                       

                                       
                                       
                                       




回复

使用道具 举报

懒得打字嘛,点击右侧快捷回复 【右侧内容,后台自定义】
您需要登录后才可以回帖 登录 | 立即加入

本版积分规则

Archiver|小黑屋| 蓝光电影网 |网站地图

Copyright © 2021 Comsenz Inc. Powered by 蓝光电影网

蓝光电影网

本站内容由用户自主分享和转载自互联网,转载目的在于传递更多信息,并不代表本网赞同其观点和对其真实性负责。

如有侵权、违反国家法律政策行为,请联系我们,我们会第一时间及时清除和处理!

举报反馈邮箱:[email protected]

快速回复 返回顶部 返回列表