找回密码

蓝光电影网

查看: 25|回复: 0

[爱情] 非常情人节 Very.Very.Valentine.2018.1080p.AMZN.WEBRip.DDP5.1.x264-ABM 6.14GB

[复制链接]
蓝光币
515
发表于 2020-9-6 13:58:17 | 显示全部楼层 |阅读模式


◎译  名 很是情人节
◎片  名 very-very-valentine
◎年  代 2018
◎产  地 美国
◎类  别 恋爱
◎语  言 英语
◎上映日期 2018-02-10(美国)
◎IMDb评分  6.6/10 from 938 users
◎IMDb链接  https://www.imdb.com/title/tt7936510/
◎豆瓣评分 /10 from 0 users
◎豆瓣链接 https://movie.douban.com/subject/30146702/
◎导  演 Don McBrearty
◎主  演 丹妮卡·麦凯拉 Danica McKellar
       卡梅隆·马泰森 Cameron Mathison
       达蒙·伦延 Damon Runyan
       Andrea Runge
◎标  签 Hallmark
◎简  介


  When florist Helen, played by Danica McKellar, meets a dreamy mystery man, played by Damon Runyon, at a masquerade ball, she and her friend Henry (Cameron Mathison) set out to find him.
  
  当花店海伦,打麦凯乐丹妮卡时,碰到了一个梦幻的奥秘人,由达蒙·鲁尼恩,化装舞会,她和她的朋友亨利(卡梅隆Mathison)动身去寻觅他。
  1. Video
  2. ID                                       : 1
  3. Format                                   : AVC
  4. Format/Info                              : Advanced Video Codec
  5. Format profile                           : [email protected]
  6. Format settings                          : CABAC / 4 Ref Frames
  7. Format settings, CABAC                   : Yes
  8. Format settings, Reference frames        : 4 frames
  9. Codec ID                                 : V_MPEG4/ISO/AVC
  10. Duration                                 : 1 h 26 min
  11. Bit rate mode                            : Constant
  12. Bit rate                                 : 10 000 kb/s
  13. Width                                    : 1 920 pixels
  14. Height                                   : 1 080 pixels
  15. Display aspect ratio                     : 16:9
  16. Frame rate mode                          : Constant
  17. Frame rate                               : 23.976 (24000/1001/189150) FPS
  18. Color space                              : YUV
  19. Chroma subsampling                       : 4:2:0
  20. Bit depth                                : 8 bits
  21. Scan type                                : Progressive
  22. Bits/(Pixel*Frame)                       : 0.201
  23. Stream size                              : 5.75 GiB (94%)
  24. Language                                 : English
  25. Default                                  : Yes
  26. Forced                                   : No
  27. Color range                              : Limited
  28. Color primaries                          : BT.709
  29. Transfer characteristics                 : BT.709
  30. Matrix coefficients                      : BT.709
  31. Audio
  32. ID                                       : 2
  33. Format                                   : E-AC-3
  34. Format/Info                              : Enhanced AC-3
  35. Commercial name                          : Dolby Digital Plus
  36. Codec ID                                 : A_EAC3
  37. Duration                                 : 1 h 26 min
  38. Bit rate mode                            : Constant
  39. Bit rate                                 : 640 kb/s
  40. Channel(s)                               : 6 channels
  41. Channel layout                           : L R C LFE Ls Rs
  42. Sampling rate                            : 48.0 kHz
  43. Frame rate                               : 31.250 FPS (1536 SPF)
  44. Compression mode                         : Lossy
  45. Stream size                              : 395 MiB (6%)
  46. Language                                 : English
  47. Service kind                             : Complete Main
  48. Default                                  : Yes
  49. Forced                                   : No
  50. Text
  51. ID                                       : 3
  52. Format                                   : UTF-8
  53. Codec ID                                 : S_TEXT/UTF8
  54. Codec ID/Info                            : UTF-8 Plain Text
  55. Duration                                 : 1 h 26 min
  56. Bit rate                                 : 76 b/s
  57. Count of elements                        : 1771
  58. Stream size                              : 48.1 KiB (0%)
  59. Language                                 : English
  60. Default                                  : No
  61. Forced                                   : No
复制代码





                                       
                                       

                                       
                                       
                                       




回复

使用道具 举报

懒得打字嘛,点击右侧快捷回复 【右侧内容,后台自定义】
您需要登录后才可以回帖 登录 | 立即加入

本版积分规则

Archiver|小黑屋| 蓝光电影网 |网站地图

Copyright © 2021 Comsenz Inc. Powered by 蓝光电影网

蓝光电影网

本站内容由用户自主分享和转载自互联网,转载目的在于传递更多信息,并不代表本网赞同其观点和对其真实性负责。

如有侵权、违反国家法律政策行为,请联系我们,我们会第一时间及时清除和处理!

举报反馈邮箱:[email protected]

快速回复 返回顶部 返回列表