找回密码

蓝光电影网

查看: 34|回复: 0

[爱情] 长腿叔叔 Daddy.Long.Legs.2015.1080p.AMZN.WEBRip.DDP2.0.x264-QOQ 8.25GB

[复制链接]
蓝光币
623
发表于 2020-8-21 11:55:09 | 显示全部楼层 |阅读模式


◎译  名 长腿叔叔
◎片  名 Daddy Long Legs
◎年  代 2015
◎产  地 美国
◎类  别 恋爱 / 音乐 / 歌舞
◎语  言 英语
◎上映日期 
◎IMDb评分  8.2/10 from 20 users
◎IMDb链接  https://www.imdb.com/title/tt9020638/
◎豆瓣评分 9.3/10 from 474 users
◎豆瓣链接 https://movie.douban.com/subject/34453831/
◎片  长 118分钟
◎标  签 音乐剧 | 恋爱 | 百老汇 | 美国 | 甜 | 女性 | Musical | 音乐
◎简  介


  朱迪(莱斯利·卡伦 Leslie Caron 饰)自幼落空了怙恃,长大在孤儿院中。17岁那一年,朱迪写了一篇名为《郁闷的星期三》的文章,这篇文章吸引了孤儿院理事(弗雷德·阿斯泰尔 Fred Astaire 饰)的留意,理事在朱迪的身上发现了异于凡人的文学天赋。理事匿名给朱迪写了一封信,告诉她他愿意帮助她去大学进修,而且支持她完成成为一位作家的胡想,作为交换的条件,朱迪每个月都要给他写信报告进修情况,朱迪答应了。
  
  就这样,朱迪进入了大黉舍园起头了她的进修,由于不知事理事的真名,所以朱迪亲热的称号他为长腿叔叔。一次偶然中,朱迪相逢了贵族令郎杰维,虽然朱迪不成自持的爱上了杰维,但她晓得自己和杰维之间的差异实在太大,因而她挑选将这份爱情隐藏在心底。
  1. Video
  2. ID                                       : 1
  3. Format                                   : AVC
  4. Format/Info                              : Advanced Video Codec
  5. Format profile                           : [email protected]
  6. Format settings                          : CABAC / 4 Ref Frames
  7. Format settings, CABAC                   : Yes
  8. Format settings, Reference frames        : 4 frames
  9. Codec ID                                 : V_MPEG4/ISO/AVC
  10. Duration                                 : 1 h 59 min
  11. Bit rate mode                            : Constant
  12. Bit rate                                 : 10 000 kb/s
  13. Width                                    : 1 920 pixels
  14. Height                                   : 1 080 pixels
  15. Display aspect ratio                     : 16:9
  16. Frame rate mode                          : Constant
  17. Frame rate                               : 29.970 (30000/1001/189150) FPS
  18. Color space                              : YUV
  19. Chroma subsampling                       : 4:2:0
  20. Bit depth                                : 8 bits
  21. Scan type                                : Progressive
  22. Bits/(Pixel*Frame)                       : 0.161
  23. Stream size                              : 8.06 GiB (98%)
  24. Default                                  : Yes
  25. Forced                                   : No
  26. Color range                              : Limited
  27. Color primaries                          : BT.709
  28. Transfer characteristics                 : BT.709
  29. Matrix coefficients                      : BT.709
  30. Audio
  31. ID                                       : 2
  32. Format                                   : E-AC-3
  33. Format/Info                              : Enhanced AC-3
  34. Commercial name                          : Dolby Digital Plus
  35. Codec ID                                 : A_EAC3
  36. Duration                                 : 1 h 59 min
  37. Bit rate mode                            : Constant
  38. Bit rate                                 : 224 kb/s
  39. Channel(s)                               : 2 channels
  40. Channel layout                           : L R
  41. Sampling rate                            : 48.0 kHz
  42. Frame rate                               : 31.250 FPS (1536 SPF)
  43. Compression mode                         : Lossy
  44. Stream size                              : 192 MiB (2%)
  45. Language                                 : English
  46. Service kind                             : Complete Main
  47. Default                                  : Yes
  48. Forced                                   : No
  49. Text #1
  50. ID                                       : 3
  51. Format                                   : UTF-8
  52. Codec ID                                 : S_TEXT/UTF8
  53. Codec ID/Info                            : UTF-8 Plain Text
  54. Duration                                 : 1 h 58 min
  55. Bit rate                                 : 82 b/s
  56. Count of elements                        : 2207
  57. Stream size                              : 71.6 KiB (0%)
  58. Language                                 : English
  59. Default                                  : No
  60. Forced                                   : No
  61. Text #2
  62. ID                                       : 4
  63. Format                                   : UTF-8
  64. Codec ID                                 : S_TEXT/UTF8
  65. Codec ID/Info                            : UTF-8 Plain Text
  66. Duration                                 : 1 h 58 min
  67. Bit rate                                 : 82 b/s
  68. Count of elements                        : 2207
  69. Stream size                              : 71.7 KiB (0%)
  70. Title                                    : SDH
  71. Language                                 : English
  72. Default                                  : No
  73. Forced                                   : No
复制代码





                                       
                                       

                                       
                                       
                                       




回复

使用道具 举报

懒得打字嘛,点击右侧快捷回复 【右侧内容,后台自定义】
您需要登录后才可以回帖 登录 | 立即加入

本版积分规则

Archiver|小黑屋| 蓝光电影网 |网站地图

Copyright © 2021 Comsenz Inc. Powered by 蓝光电影网

蓝光电影网

本站内容由用户自主分享和转载自互联网,转载目的在于传递更多信息,并不代表本网赞同其观点和对其真实性负责。

如有侵权、违反国家法律政策行为,请联系我们,我们会第一时间及时清除和处理!

举报反馈邮箱:[email protected]

快速回复 返回顶部 返回列表