找回密码

蓝光电影网

查看: 36|回复: 0

[动作] 复仇者联盟4:终局之战 Avengers.Endgame.2019.1080p.AMZN.WEBRip.DDP5.1.Atmos.x264-NTG 13.50GB

[复制链接]
蓝光币
519
发表于 2019-7-30 19:59:45 | 显示全部楼层 |阅读模式


◎译  名 复仇者同盟4:终局之战 / AVG4 / Avengers: Infinity War - Part II / The Avengers 3: Part 2 / The Avengers 4: Endgame / 复仇者同盟3:无尽之战(下) / 复联4
◎片  名 Avengers: Endgame
◎年  代 2019
◎产  地 美国
◎类  别 行动 / 科幻 / 奇异 / 冒险
◎语  言 英语 / 日语 / 科萨语
◎上映日期 2019-04-24(中国大陆) / 2019-04-26(美国)
◎IMDb评分  8.7/10 from 487015 users
◎IMDb链接  http://www.imdb.com/title/tt4154796
◎豆瓣评分 8.6/10 from 630015 users
◎豆瓣链接 https://movie.douban.com/subject/26100958/
◎片  长 181分钟
◎导  演 安东尼·罗素 Anthony Russo / 乔·罗素 Joe Russo
◎编  剧 克里斯托弗·马库斯 Christopher Markus / 斯蒂芬·麦克菲利 Stephen McFeely / 斯坦·李 Stan Lee / 杰克·科比 Jack Kirby / 吉姆·斯特林 Jim Starlin
◎主  演 小罗伯特·唐尼 Robert Downey Jr.
      克里斯·埃文斯 Chris Evans
      马克·鲁弗洛 Mark Ruffalo
      克里斯·海姆斯沃斯 Chris Hemsworth
      斯嘉丽·约翰逊 Scarlett Johansson
      杰瑞米·雷纳 Jeremy Renner
      保罗·路德 Paul Rudd
      凯伦·吉兰 Karen Gillan
      唐·钱德尔 Don Cheadle
      布丽·拉尔森 Brie Larson
      布莱德利·库珀 Bradley Cooper
      泰莎·汤普森 Tessa Thompson
      汤姆·赫兰德 Tom Holland
      伊丽莎白·奥尔森 Elizabeth Olsen
      本尼迪克特·康伯巴奇 Benedict Cumberbatch
      蒂尔达·斯文顿 Tilda Swinton
      格温妮斯·帕特洛 Gwyneth Paltrow
      蕾妮·罗素 Rene Russo
      约翰·斯拉特里 John Slattery
      查德维克·博斯曼 Chadwick Boseman
      安东尼·麦凯 Anthony Mackie
      塞巴斯蒂安·斯坦 Sebastian Stan
      克里斯·帕拉特 Chris Pratt
      汤姆·希德勒斯顿 Tom Hiddleston
      佐伊·索尔达娜 Zoe Saldana
      丹娜·奎里拉 Danai Gurira
      本尼迪克特·王 Benedict Wong
      庞·克莱门捷夫 Pom Klementieff
      戴夫·巴蒂斯塔 Dave Bautista
      利蒂希娅·赖特 Letitia Wright
      伊万杰琳·莉莉 Evangeline Lilly
      乔恩·费儒 Jon Favreau
      海莉·阿特维尔 Hayley Atwell
      娜塔莉·波特曼 Natalie Portman
      玛丽莎·托梅 Marisa Tomei
      塔伊加·维迪提 Taika Waititi
      安吉拉·贝塞特 Angela Bassett
      迈克尔·道格拉斯 Michael Douglas
      米歇尔·菲佛 Michelle Pfeiffer
      威廉·赫特 William Hurt
      寇碧·史莫德斯 Cobie Smulders
      肖恩·古恩 Sean Gunn
      温斯顿·杜克 Winston Duke
      琳达·卡德里尼 Linda Cardellini
      马克斯米利亚诺·赫尔南德斯 Maximiliano Hernández
      弗兰克·格里罗 Frank Grillo
      真田广之 Hiroyuki Sanada
      汤姆-沃恩-劳勒 Tom Vaughan-Lawlor
      詹姆斯·达西 James D'Arcy
      雅各布·巴特朗 Jacob Batalon
      范·迪塞尔 Vin Diesel
      罗伯特·雷德福 Robert Redford
      乔什·布洛林 Josh Brolin
      塞缪尔·杰克逊 Samuel L. Jackson
      伊薇特·尼科尔·布朗 Yvette Nicole Brown
      卡梅伦·布鲁姆布罗 Cameron Brumbelow
      蒂莫西·卡尔 Timothy Carr
      凯瑞·康顿 Kerry Condon
      迈克尔·A·库克 Michael A. Cook
      凯莉·库恩 Carrie Coon
      艾玛·福尔曼 Emma Fuhrmann
      雷纳·加拉赫 Renah Gallagher
      丹妮拉·加斯基 Daniela Gaskie
      郑肯 Ken Jeong
      小弗洛伊德·安东尼·约翰 Floyd Anthony Johns Jr.
      斯坦·李 Stan Lee
      罗斯·马昆德 Ross Marquand
      布伦特·麦吉 Brent McGee
      迈克尔·皮耶里诺·米勒 Michael Pierino Miller
      卡兰·马尔韦 Callan Mulvey
      泰瑞·诺塔里 Terry Notary
      吉米·雷·皮肯斯 Jimmy Ray Pickens
      迈克尔·詹姆斯·肖 Michael James Shaw
      泰·辛普金斯 Ty Simpkins
      格雷格·蒂芬 Greg Tiffan

◎标  签 漫威 | 超级豪杰 | 科幻 | 美国 | 2019 | 情怀 | 行动 | 漫画改编
◎简  介  
  一声响指,宇宙间对折生命灰飞烟灭。几近失望的复仇者们在惊奇队长(布丽·拉尔森 Brie Larson 饰)的帮助下找到灭霸(乔什·布洛林 Josh Brolin 饰)归隐之处,却得知六颗无穷宝石均被烧毁,希望完全幻灭。如是过了五年,丢失在量子范畴的蚁人(保罗·路德 Paul Rudd 饰)意外回到现实天下,他的出现为幸存的复仇者们扑灭了希望。与美国队长(克里斯·埃文斯 Chris Evans 饰)冰释前嫌的托尼(小罗伯特·唐尼 Robert Downey Jr. 饰)找到了穿越时空的方式,分离各地的超级豪杰再度集结,他们别离穿越分歧的时代去汇集无穷宝石。而在这一进程中,平行宇宙的灭霸发觉了他们的计划。
必定要载入史册的终极决战,超级豪杰们为了心中固守的信心前仆后继……
◎获奖情况  
  第28届MTV电影奖(2019)
  MTV电影奖 年度电影
  MTV电影奖 最好打架(提名) 乔什·布洛林 / 克里斯·埃文斯
  MTV电影奖 最好反派 乔什·布洛林
  MTV电影奖 最好豪杰形象 小罗伯特·唐尼
  第5届豆瓣电影年度榜单(2018)
  最值得期待的外语电影

  1. Video
  2. ID                                       : 1
  3. Format                                   : AVC
  4. Format/Info                              : Advanced Video Codec
  5. Format profile                           : [email protected]
  6. Format settings                          : CABAC / 4 Ref Frames
  7. Format settings, CABAC                   : Yes
  8. Format settings, Reference frames        : 4 frames
  9. Format settings, GOP                     : M=4, N=48
  10. Codec ID                                 : V_MPEG4/ISO/AVC
  11. Duration                                 : 3 h 1 min
  12. Bit rate mode                            : Constant
  13. Bit rate                                 : 10 000 kb/s
  14. Width                                    : 1 920 pixels
  15. Height                                   : 1 080 pixels
  16. Display aspect ratio                     : 16:9
  17. Frame rate mode                          : Constant
  18. Frame rate                               : 23.976 (24000/1001) FPS
  19. Color space                              : YUV
  20. Chroma subsampling                       : 4:2:0
  21. Bit depth                                : 8 bits
  22. Scan type                                : Progressive
  23. Bits/(Pixel*Frame)                       : 0.201
  24. Stream size                              : 12.4 GiB (92%)
  25. Language                                 : English
  26. Default                                  : Yes
  27. Forced                                   : No
  28. Color range                              : Limited
  29. Color primaries                          : BT.709
  30. Transfer characteristics                 : BT.709
  31. Matrix coefficients                      : BT.709
  32. Audio #1
  33. ID                                       : 2
  34. Format                                   : E-AC-3 JOC
  35. Format/Info                              : Enhanced AC-3 with Joint Object Coding
  36. Commercial name                          : Dolby Digital Plus with Dolby Atmos
  37. Codec ID                                 : A_EAC3
  38. Duration                                 : 3 h 1 min
  39. Bit rate mode                            : Constant
  40. Bit rate                                 : 640 kb/s
  41. Channel(s)                               : 6 channels
  42. Channel layout                           : L R C LFE Ls Rs
  43. Sampling rate                            : 48.0 kHz
  44. Frame rate                               : 31.250 FPS (1536 SPF)
  45. Compression mode                         : Lossy
  46. Delay relative to video                  : 13 ms
  47. Stream size                              : 832 MiB (6%)
  48. Language                                 : English
  49. Service kind                             : Complete Main
  50. Default                                  : Yes
  51. Forced                                   : No
  52. Complexity index                         : 16
  53. Number of dynamic objects                : 15
  54. Bed channel count                        : 1 channel
  55. Bed channel configuration                : LFE
  56. Audio #2
  57. ID                                       : 3
  58. Format                                   : E-AC-3
  59. Format/Info                              : Enhanced AC-3
  60. Commercial name                          : Dolby Digital Plus
  61. Codec ID                                 : A_EAC3
  62. Duration                                 : 3 h 1 min
  63. Bit rate mode                            : Constant
  64. Bit rate                                 : 256 kb/s
  65. Channel(s)                               : 6 channels
  66. Channel layout                           : L R C LFE Ls Rs
  67. Sampling rate                            : 48.0 kHz
  68. Frame rate                               : 31.250 FPS (1536 SPF)
  69. Compression mode                         : Lossy
  70. Delay relative to video                  : 16 ms
  71. Stream size                              : 332 MiB (2%)
  72. Title                                    : Writer and Directory Commentary
  73. Language                                 : English
  74. Service kind                             : Complete Main
  75. Default                                  : No
  76. Forced                                   : No
  77. Text #1
  78. ID                                       : 4
  79. Format                                   : UTF-8
  80. Codec ID                                 : S_TEXT/UTF8
  81. Codec ID/Info                            : UTF-8 Plain Text
  82. Duration                                 : 2 h 47 min
  83. Bit rate                                 : 50 b/s
  84. Count of elements                        : 2339
  85. Stream size                              : 61.9 KiB (0%)
  86. Language                                 : English
  87. Default                                  : No
  88. Forced                                   : No
  89. Text #2
  90. ID                                       : 5
  91. Format                                   : UTF-8
  92. Codec ID                                 : S_TEXT/UTF8
  93. Codec ID/Info                            : UTF-8 Plain Text
  94. Duration                                 : 3 h 0 min
  95. Bit rate                                 : 50 b/s
  96. Count of elements                        : 2641
  97. Stream size                              : 66.9 KiB (0%)
  98. Title                                    : SDH
  99. Language                                 : English
  100. Default                                  : No
  101. Forced                                   : No
  102. Text #3
  103. ID                                       : 6
  104. Format                                   : UTF-8
  105. Codec ID                                 : S_TEXT/UTF8
  106. Codec ID/Info                            : UTF-8 Plain Text
  107. Duration                                 : 3 h 0 min
  108. Bit rate                                 : 104 b/s
  109. Count of elements                        : 3375
  110. Stream size                              : 139 KiB (0%)
  111. Title                                    : Writer and Directory Commentary
  112. Language                                 : English
  113. Default                                  : No
  114. Forced                                   : No
  115. Menu
  116. 00:00:00.000                             : en:Archery Practice
  117. 00:01:54.000                             : en:Studio Logo
  118. 00:02:32.000                             : en:Drifting
  119. 00:08:05.000                             : en:Homecoming
  120. 00:12:19.000                             : en:"To the Garden"
  121. 00:14:51.000                             : en:Title Sequence
  122. 00:14:59.000                             : en:Inevitable
  123. 00:19:56.000                             : en:Five Years Later
  124. 00:22:10.000                             : en:Quantum Return
  125. 00:26:15.000                             : en:Doorbell
  126. 00:32:53.000                             : en:A Second Chance
  127. 00:36:56.000                             : en:Hulk Fans
  128. 00:39:04.000                             : en:Extortion
  129. 00:43:19.000                             : en:"An Absolute Win"
  130. 00:45:25.000                             : en:"Didn't Bring One for the Whole Team"
  131. 00:47:54.000                             : en:Taco Time
  132. 00:48:44.000                             : en:New Asgard
  133. 00:54:21.000                             : en:Enter Ronin
  134. 00:57:36.000                             : en:Practice Jump
  135. 01:01:49.000                             : en:Heist Brainstorm
  136. 01:07:12.000                             : en:New York
  137. 01:09:17.000                             : en:Asgard
  138. 01:11:56.000                             : en:Morag
  139. 01:16:02.000                             : en:"Take the Stairs"
  140. 01:18:02.000                             : en:"Hail Hydra"
  141. 01:19:21.000                             : en:"Mild Cardiac Dysrhythmia"
  142. 01:21:52.000                             : en:"I Can Do This All Day"
  143. 01:23:41.000                             : en:Branching Realities
  144. 01:26:25.000                             : en:"Another Nebula"
  145. 01:28:24.000                             : en:"Not the Thor I Know"
  146. 01:32:20.000                             : en:"So He's an Idiot?"
  147. 01:37:02.000                             : en:New Plan
  148. 01:38:55.000                             : en:Back to Camp
  149. 01:40:16.000                             : en:Surprise Dad
  150. 01:42:01.000                             : en:Pym Package
  151. 01:42:58.000                             : en:Parenting Advice
  152. 01:43:43.000                             : en:Old Flames
  153. 01:44:59.000                             : en:Dad Hug
  154. 01:46:38.000                             : en:Nebula Switch
  155. 01:48:12.000                             : en:Soul Stone
  156. 01:55:07.000                             : en:Return Trip
  157. 01:57:55.000                             : en:Snap Back
  158. 02:03:01.000                             : en:Buried Avengers
  159. 02:05:00.000                             : en:Sisters Unite
  160. 02:06:47.000                             : en:"Back to Me"
  161. 02:09:43.000                             : en:"You Can Change"
  162. 02:11:57.000                             : en:Worthy
  163. 02:15:06.000                             : en:"Avengers Assemble"
  164. 02:20:06.000                             : en:Running the Gauntlet
  165. 02:25:50.000                             : en:"I am Iron Man"
  166. 02:31:59.000                             : en:"We're Going to be Okay"
  167. 02:34:37.000                             : en:"I Love You 3000"
  168. 02:39:04.000                             : en:"They Know"
  169. 02:40:18.000                             : en:New Guardian
  170. 02:43:03.000                             : en:It's Been a Long Time
  171. 02:49:05.000                             : en:End Credits
复制代码






                                       
                                       

                                       
                                       
                                       




回复

使用道具 举报

懒得打字嘛,点击右侧快捷回复 【右侧内容,后台自定义】
您需要登录后才可以回帖 登录 | 立即加入

本版积分规则

Archiver|小黑屋| 蓝光电影网 |网站地图

Copyright © 2021 Comsenz Inc. Powered by 蓝光电影网

蓝光电影网

本站内容由用户自主分享和转载自互联网,转载目的在于传递更多信息,并不代表本网赞同其观点和对其真实性负责。

如有侵权、违反国家法律政策行为,请联系我们,我们会第一时间及时清除和处理!

举报反馈邮箱:[email protected]

快速回复 返回顶部 返回列表