找回密码

蓝光电影网

查看: 21|回复: 0

[爱情] 童话王子 Once.Upon.a.Prince.2018.1080p.AMZN.WEBRip.DDP5.1.x264-pawel2006 5.80GB

[复制链接]
蓝光币
511
发表于 2020-8-13 00:28:44 | 显示全部楼层 |阅读模式


◎译  名 童话王子
◎片  名 Once Upon a Prince
◎年  代 2018
◎产  地 美国
◎类  别 恋爱
◎语  言 英语
◎上映日期 2018-04-07(美国)
◎IMDb评分  6.4/10 from 1170 users
◎IMDb链接  https://www.imdb.com/title/tt8250512
◎豆瓣评分 0/10 from 0 users
◎豆瓣链接 https://movie.douban.com/subject/30192150/
◎片  长 120分钟
◎导  演 Alex Wright
◎编  剧 Tracy Andreen
◎主  演 布莱尔·潘纳 Blair Penner
       梅根·帕克 Megan Park
       Marlie Collins
       Kayla Wallace
       萨拉·博茨福德 Sara Botsford
       Yasmin Abidi
       Colleen Winton
       Frances Flanagan
       乔纳森·凯兹 Jonathan Keltz
       Andrew Moxham
       Jake Roberts

◎标  签 恋爱 | 美国 | 笑剧 | Hallmark | 2018 | tvmovie | hallmark | ..
◎简  介

  
  A prince visiting the U.S. falls for a commoner when he helps her. But his mother isn't pleased with the match and tries to prove that the American gal isn't suitable to be a royal bride.
  1. Video
  2. ID                                       : 1
  3. Format                                   : AVC
  4. Format/Info                              : Advanced Video Codec
  5. Format profile                           : [email protected]
  6. Format settings                          : CABAC / 4 Ref Frames
  7. Format settings, CABAC                   : Yes
  8. Format settings, Reference frames        : 4 frames
  9. Codec ID                                 : V_MPEG4/ISO/AVC
  10. Duration                                 : 1 h 25 min
  11. Bit rate mode                            : Constant
  12. Bit rate                                 : 9 021 kb/s
  13. Nominal bit rate                         : 10 000 kb/s
  14. Width                                    : 1 920 pixels
  15. Height                                   : 1 080 pixels
  16. Display aspect ratio                     : 16:9
  17. Frame rate mode                          : Constant
  18. Frame rate                               : 23.976 (24000/1001/189150) FPS
  19. Color space                              : YUV
  20. Chroma subsampling                       : 4:2:0
  21. Bit depth                                : 8 bits
  22. Scan type                                : Progressive
  23. Bits/(Pixel*Frame)                       : 0.181
  24. Stream size                              : 5.42 GiB (93%)
  25. Default                                  : Yes
  26. Forced                                   : No
  27. Color range                              : Limited
  28. Color primaries                          : BT.709
  29. Transfer characteristics                 : BT.709
  30. Matrix coefficients                      : BT.709
  31. Audio
  32. ID                                       : 2
  33. Format                                   : E-AC-3
  34. Format/Info                              : Enhanced AC-3
  35. Commercial name                          : Dolby Digital Plus
  36. Codec ID                                 : A_EAC3
  37. Duration                                 : 1 h 25 min
  38. Bit rate mode                            : Constant
  39. Bit rate                                 : 640 kb/s
  40. Channel(s)                               : 6 channels
  41. Channel layout                           : L R C LFE Ls Rs
  42. Sampling rate                            : 48.0 kHz
  43. Frame rate                               : 31.250 FPS (1536 SPF)
  44. Compression mode                         : Lossy
  45. Stream size                              : 394 MiB (7%)
  46. Language                                 : English
  47. Service kind                             : Complete Main
  48. Default                                  : Yes
  49. Forced                                   : No
  50. Text
  51. ID                                       : 3
  52. Format                                   : UTF-8
  53. Codec ID                                 : S_TEXT/UTF8
  54. Codec ID/Info                            : UTF-8 Plain Text
  55. Duration                                 : 1 h 23 min
  56. Bit rate                                 : 75 b/s
  57. Count of elements                        : 1895
  58. Stream size                              : 46.1 KiB (0%)
  59. Language                                 : English
  60. Default                                  : Yes
  61. Forced                                   : No
复制代码






                                       
                                       

                                       
                                       
                                       




回复

使用道具 举报

懒得打字嘛,点击右侧快捷回复 【右侧内容,后台自定义】
您需要登录后才可以回帖 登录 | 立即加入

本版积分规则

Archiver|小黑屋| 蓝光电影网 |网站地图

Copyright © 2021 Comsenz Inc. Powered by 蓝光电影网

蓝光电影网

本站内容由用户自主分享和转载自互联网,转载目的在于传递更多信息,并不代表本网赞同其观点和对其真实性负责。

如有侵权、违反国家法律政策行为,请联系我们,我们会第一时间及时清除和处理!

举报反馈邮箱:[email protected]

快速回复 返回顶部 返回列表