找回密码

蓝光电影网

查看: 23|回复: 0

[爱情] 失落的情人节 The.Lost.Valentine.2011.1080p.AMZN.WEBRip.DDP2.0.x264-alfaHD 6.66GB

[复制链接]
蓝光币
519
发表于 2020-7-23 19:32:41 | 显示全部楼层 |阅读模式


◎译  名 失落的情人节 / L'Amour à la une
◎片  名 The Lost Valentine
◎年  代 2011
◎产  地 美国
◎类  别 恋爱
◎语  言 英语
◎上映日期 2011-02
◎IMDb评分  7.5/10 from 5140 users
◎IMDb链接  https://www.imdb.com/title/tt1709157
◎豆瓣评分 6.5/10 from 61 users
◎豆瓣链接 https://movie.douban.com/subject/5356807/
◎片  长 100分钟
◎导  演 Darnell Martin
◎编  剧 Maryann Ridini Spencer
◎主  演 Jennifer Love Hewitt, Sean Fairs, Betty White

◎标  签 美国 | 恋爱 | 2011 | 美国电影 | 电影 | 詹妮弗 | JenniferLoveHewitt | 感动
◎简  介

  
  改编自James Michael Pratt的小说《最初的情人节》。1944年,水兵飞翔员Neil Thomas被派遣上疆场。2月14日,正值两人成婚纪念日,车站临行之际,Neil许下许诺,会鄙人一个纪念日回到这个车站。惋惜,许诺没能兑现,Neil在一次行动中失落。为了阿谁许诺,Caroline Thomas六年来每年都去车站等待丈夫信守许诺归来....
  1. Video
  2. ID                                       : 1
  3. Format                                   : AVC
  4. Format/Info                              : Advanced Video Codec
  5. Format profile                           : [email protected]
  6. Format settings                          : CABAC / 4 Ref Frames
  7. Format settings, CABAC                   : Yes
  8. Format settings, Reference frames        : 4 frames
  9. Codec ID                                 : V_MPEG4/ISO/AVC
  10. Duration                                 : 1 h 36 min
  11. Bit rate mode                            : Constant
  12. Bit rate                                 : 10 000 kb/s
  13. Width                                    : 1 920 pixels
  14. Height                                   : 1 080 pixels
  15. Display aspect ratio                     : 16:9
  16. Frame rate mode                          : Constant
  17. Frame rate                               : 23.976 (24000/1001/189150) FPS
  18. Color space                              : YUV
  19. Chroma subsampling                       : 4:2:0
  20. Bit depth                                : 8 bits
  21. Scan type                                : Progressive
  22. Bits/(Pixel*Frame)                       : 0.201
  23. Stream size                              : 6.50 GiB (98%)
  24. Default                                  : Yes
  25. Forced                                   : No
  26. Color range                              : Limited
  27. Color primaries                          : BT.709
  28. Transfer characteristics                 : BT.709
  29. Matrix coefficients                      : BT.709
  30. Audio
  31. ID                                       : 2
  32. Format                                   : E-AC-3
  33. Format/Info                              : Enhanced AC-3
  34. Commercial name                          : Dolby Digital Plus
  35. Codec ID                                 : A_EAC3
  36. Duration                                 : 1 h 36 min
  37. Bit rate mode                            : Constant
  38. Bit rate                                 : 224 kb/s
  39. Channel(s)                               : 2 channels
  40. Channel layout                           : L R
  41. Sampling rate                            : 48.0 kHz
  42. Frame rate                               : 31.250 FPS (1536 SPF)
  43. Compression mode                         : Lossy
  44. Stream size                              : 154 MiB (2%)
  45. Language                                 : English
  46. Service kind                             : Complete Main
  47. Default                                  : Yes
  48. Forced                                   : No
  49. Text #1
  50. ID                                       : 3
  51. Format                                   : UTF-8
  52. Codec ID                                 : S_TEXT/UTF8
  53. Codec ID/Info                            : UTF-8 Plain Text
  54. Duration                                 : 1 h 34 min
  55. Bit rate                                 : 68 b/s
  56. Count of elements                        : 1697
  57. Stream size                              : 47.5 KiB (0%)
  58. Language                                 : English
  59. Default                                  : No
  60. Forced                                   : No
  61. Text #2
  62. ID                                       : 4
  63. Format                                   : UTF-8
  64. Codec ID                                 : S_TEXT/UTF8
  65. Codec ID/Info                            : UTF-8 Plain Text
  66. Duration                                 : 1 h 35 min
  67. Bit rate                                 : 68 b/s
  68. Count of elements                        : 1709
  69. Stream size                              : 47.6 KiB (0%)
  70. Title                                    : SDH
  71. Language                                 : English
  72. Default                                  : No
  73. Forced                                   : No
复制代码






                                       
                                       

                                       
                                       
                                       




回复

使用道具 举报

懒得打字嘛,点击右侧快捷回复 【右侧内容,后台自定义】
您需要登录后才可以回帖 登录 | 立即加入

本版积分规则

Archiver|小黑屋| 蓝光电影网 |网站地图

Copyright © 2021 Comsenz Inc. Powered by 蓝光电影网

蓝光电影网

本站内容由用户自主分享和转载自互联网,转载目的在于传递更多信息,并不代表本网赞同其观点和对其真实性负责。

如有侵权、违反国家法律政策行为,请联系我们,我们会第一时间及时清除和处理!

举报反馈邮箱:[email protected]

快速回复 返回顶部 返回列表