找回密码

蓝光电影网

查看: 5|回复: 0

[动作] 死亡天使 Angel.of.Death.2009.1080p.AMZN.WEBRip.DDP2.0.x264-ABM 7.66GB

[复制链接]
蓝光币
519
发表于 2019-7-21 01:26:16 | 显示全部楼层 |阅读模式


◎译  名 灭亡天使
◎片  名 Angel of Death
◎年  代 2009
◎产  地 美国
◎类  别 行动 / 惊悚 / 犯罪
◎语  言 英语
◎上映日期 2009-07-07(美国)
◎IMDb评分  5.0/10 from 2042 users
◎IMDb链接  http://www.imdb.com/title/tt1269734
◎豆瓣评分 5.0/10 from 369 users
◎豆瓣链接 https://movie.douban.com/subject/3886698/
◎片  长 77 分钟
◎导  演 Paul Etheredge
◎编  剧 爱德·布鲁贝克 Ed Brubaker
◎主  演 佐伊·贝尔 Zoe Bell
      杰克·阿贝尔 Jake Abel
      薇尔·布鲁姆 Vail Bloom
      Justin Huen
      Doug Jones
      Lucy Lawless
      Brian Poth
      泰德·雷米 Ted Raimi
      Ingrid Rogers
      John Serge
      Pat Asanti
      Kaela Crawford
      Robert Lewis Stephenson
      Paige Orr
      Michael Dunn

◎标  签 行动 | 美国 | 美国电影 | 暴力 | 黑帮 | 2009 | 暴力美学 | 电影
◎简  介  
  本片采用《磨坊》的拍摄手法,开启此系列数字电影之先河。一个刻毒的杀手头部受的重创经常发生空想,看到那些他曾杀死的人,她起头对自己已经的店主,停止复仇。
  1. Video
  2. ID                                       : 1
  3. Format                                   : AVC
  4. Format/Info                              : Advanced Video Codec
  5. Format profile                           : [email protected]
  6. Format settings                          : CABAC / 4 Ref Frames
  7. Format settings, CABAC                   : Yes
  8. Format settings, Reference frames        : 4 frames
  9. Codec ID                                 : V_MPEG4/ISO/AVC
  10. Duration                                 : 1 h 17 min
  11. Bit rate mode                            : Variable
  12. Bit rate                                 : 13.9 Mb/s
  13. Maximum bit rate                         : 15.0 Mb/s
  14. Width                                    : 1 920 pixels
  15. Height                                   : 960 pixels
  16. Display aspect ratio                     : 2.000
  17. Frame rate mode                          : Constant
  18. Frame rate                               : 23.976 (24000/1001) FPS
  19. Color space                              : YUV
  20. Chroma subsampling                       : 4:2:0
  21. Bit depth                                : 8 bits
  22. Scan type                                : Progressive
  23. Bits/(Pixel*Frame)                       : 0.314
  24. Stream size                              : 7.54 GiB (98%)
  25. Writing library                          : x264 core 148 r2623 d5b2374
  26. Encoding settings                        : cabac=1 / ref=4 / deblock=1:-1:-1 / analyse=0x3:0x133 / me=umh / subme=9 / psy=1 / psy_rd=1.00:0.15 / mixed_ref=1 / me_range=24 / chroma_me=1 / trellis=2 / 8x8dct=1 / cqm=0 / deadzone=21,11 / fast_pskip=1 / chroma_qp_offset=-3 / threads=30 / lookahead_threads=5 / sliced_threads=0 / nr=150 / decimate=1 / interlaced=0 / bluray_compat=0 / constrained_intra=0 / bframes=8 / b_pyramid=2 / b_adapt=2 / b_bias=0 / direct=3 / weightb=1 / open_gop=0 / weightp=2 / keyint=120 / keyint_min=61 / scenecut=0 / intra_refresh=0 / rc_lookahead=120 / rc=crf / mbtree=1 / crf=18.0 / qcomp=0.60 / qpmin=0 / qpmax=69 / qpstep=4 / vbv_maxrate=15000 / vbv_bufsize=31250 / crf_max=0.0 / nal_hrd=vbr / filler=0 / ip_ratio=1.40 / aq=3:1.00
  27. Default                                  : Yes
  28. Forced                                   : No
  29. Color range                              : Limited
  30. Color primaries                          : BT.709
  31. Transfer characteristics                 : BT.709
  32. Matrix coefficients                      : BT.709
  33. Audio
  34. ID                                       : 2
  35. Format                                   : E-AC-3
  36. Format/Info                              : Enhanced AC-3
  37. Commercial name                          : Dolby Digital Plus
  38. Codec ID                                 : A_EAC3
  39. Duration                                 : 1 h 17 min
  40. Bit rate mode                            : Constant
  41. Bit rate                                 : 224 kb/s
  42. Channel(s)                               : 2 channels
  43. Channel layout                           : L R
  44. Sampling rate                            : 48.0 kHz
  45. Frame rate                               : 31.250 FPS (1536 SPF)
  46. Compression mode                         : Lossy
  47. Stream size                              : 125 MiB (2%)
  48. Language                                 : English
  49. Service kind                             : Complete Main
  50. Default                                  : Yes
  51. Forced                                   : No
  52. Text
  53. ID                                       : 3
  54. Format                                   : UTF-8
  55. Codec ID                                 : S_TEXT/UTF8
  56. Codec ID/Info                            : UTF-8 Plain Text
  57. Duration                                 : 1 h 12 min
  58. Bit rate                                 : 54 b/s
  59. Count of elements                        : 997
  60. Stream size                              : 28.6 KiB (0%)
  61. Language                                 : English
  62. Default                                  : No
  63. Forced                                   : No
复制代码






                                       
                                       

                                       
                                       
                                       




回复

使用道具 举报

懒得打字嘛,点击右侧快捷回复 【右侧内容,后台自定义】
您需要登录后才可以回帖 登录 | 立即加入

本版积分规则

Archiver|小黑屋| 蓝光电影网 |网站地图

Copyright © 2021 Comsenz Inc. Powered by 蓝光电影网

蓝光电影网

本站内容由用户自主分享和转载自互联网,转载目的在于传递更多信息,并不代表本网赞同其观点和对其真实性负责。

如有侵权、违反国家法律政策行为,请联系我们,我们会第一时间及时清除和处理!

举报反馈邮箱:[email protected]

快速回复 返回顶部 返回列表