找回密码

蓝光电影网

查看: 22|回复: 0

[爱情] 明媚的夜 The.Sunlit.Night.2019.1080p.WEB-DL.DD5.1.H264-FGT 2.71GB

[复制链接]
蓝光币
519
发表于 2020-7-18 10:39:30 | 显示全部楼层 |阅读模式


◎译  名 明媚的夜
◎片  名 The Sunlit Night
◎年  代 2019
◎产  地 德国 / 挪威
◎类  别 恋爱
◎上映日期 2019-01-26(圣丹斯电影节) / 2020-07-17(德国)
◎IMDb评分  6.4/10 from 131 users
◎IMDb链接  https://www.imdb.com/title/tt8368394
◎豆瓣评分 0/10 from 0 users
◎豆瓣链接 https://movie.douban.com/subject/30391753/
◎片  长 106分钟
◎导  演 大卫·韦恩特 David Wnendt
◎主  演 珍妮·斯蕾特 Jenny Slate
       吉莲·安德森 Gillian Anderson
       扎克·加利凡纳基斯 Zach Galifianakis
       杰西卡·赫特 Jessica Hecht
       艾利克斯·夏普 Alex Sharp
       张欣迪 Cindy Cheung
       尤斯图斯·冯·多赫纳尼 Justus von Dohnányi
       Dan Puck
       Kelly Abbondanzo
       阿尔贝托·博尼拉 Alberto Bonilla

◎标  签 挪威 | 德国 | 恋爱 | 2019 | 圣丹斯电影节 | 剧情 | cinema
◎简  介

  
  以纽约市和挪威最北部地域为布景,故事报告美国画家弗朗西斯和米格里亚莎在北极圈找到相互的故事。当雅莎来把父亲埋葬在维京人的地盘上时,弗朗西斯已经起头了她的职业生活。他们一路洗澡在永不夕照的阳光下,埋葬曩昔,发现未来,还有家人,他们不晓得他们已经具有过。
  1. Video
  2. ID                                       : 1
  3. Format                                   : AVC
  4. Format/Info                              : Advanced Video Codec
  5. Format profile                           : [email protected]
  6. Format settings                          : CABAC / 5 Ref Frames
  7. Format settings, CABAC                   : Yes
  8. Format settings, Reference frames        : 5 frames
  9. Codec ID                                 : V_MPEG4/ISO/AVC
  10. Duration                                 : 1 h 18 min
  11. Bit rate                                 : 4 560 kb/s
  12. Width                                    : 1 920 pixels
  13. Height                                   : 804 pixels
  14. Display aspect ratio                     : 2.40:1
  15. Frame rate mode                          : Constant
  16. Frame rate                               : 25.000 FPS
  17. Color space                              : YUV
  18. Chroma subsampling                       : 4:2:0
  19. Bit depth                                : 8 bits
  20. Scan type                                : Progressive
  21. Bits/(Pixel*Frame)                       : 0.118
  22. Stream size                              : 2.50 GiB (92%)
  23. Title                                    : The.Sunlit.Night.2019.1080p.WEB-DL.DD5.1.H264-FGT
  24. Language                                 : English
  25. Default                                  : Yes
  26. Forced                                   : No
  27. Color range                              : Limited
  28. Color primaries                          : BT.709
  29. Transfer characteristics                 : BT.709
  30. Matrix coefficients                      : BT.709
  31. Audio
  32. ID                                       : 2
  33. Format                                   : AC-3
  34. Format/Info                              : Audio Coding 3
  35. Commercial name                          : Dolby Digital
  36. Codec ID                                 : A_AC3
  37. Duration                                 : 1 h 18 min
  38. Bit rate mode                            : Constant
  39. Bit rate                                 : 384 kb/s
  40. Channel(s)                               : 6 channels
  41. Channel layout                           : L R C LFE Ls Rs
  42. Sampling rate                            : 48.0 kHz
  43. Frame rate                               : 31.250 FPS (1536 SPF)
  44. Bit depth                                : 16 bits
  45. Compression mode                         : Lossy
  46. Stream size                              : 215 MiB (8%)
  47. Title                                    : The.Sunlit.Night.2019.1080p.WEB-DL.DD5.1.H264-FGT
  48. Language                                 : English
  49. Service kind                             : Complete Main
  50. Default                                  : Yes
  51. Forced                                   : No
  52. Text
  53. ID                                       : 3
  54. Format                                   : UTF-8
  55. Codec ID                                 : S_TEXT/UTF8
  56. Codec ID/Info                            : UTF-8 Plain Text
  57. Duration                                 : 1 h 13 min
  58. Bit rate                                 : 36 b/s
  59. Count of elements                        : 686
  60. Stream size                              : 19.8 KiB (0%)
  61. Language                                 : English
  62. Default                                  : Yes
  63. Forced                                   : No
复制代码






                                       
                                       

                                       
                                       
                                       




回复

使用道具 举报

懒得打字嘛,点击右侧快捷回复 【右侧内容,后台自定义】
您需要登录后才可以回帖 登录 | 立即加入

本版积分规则

Archiver|小黑屋| 蓝光电影网 |网站地图

Copyright © 2021 Comsenz Inc. Powered by 蓝光电影网

蓝光电影网

本站内容由用户自主分享和转载自互联网,转载目的在于传递更多信息,并不代表本网赞同其观点和对其真实性负责。

如有侵权、违反国家法律政策行为,请联系我们,我们会第一时间及时清除和处理!

举报反馈邮箱:[email protected]

快速回复 返回顶部 返回列表