找回密码

蓝光电影网

查看: 39|回复: 0

[动作] 阿丽塔:战斗天使/艾莉塔:战斗天使 Alita.Battle.Angel.2019.1080p.WEBRip.AAC2.0.x264-BADQUALITY 1.84GB

[复制链接]
蓝光币
515
发表于 2019-6-28 21:20:25 | 显示全部楼层 |阅读模式


◎译  名 阿丽塔:战役天使 / 艾莉塔:战役天使(台) / 铳梦 / 铳梦:战役天使(港)
◎片  名 Alita: Battle Angel
◎年  代 2019
◎产  地 美国 / 加拿大 / 阿根廷
◎类  别 行动 / 科幻 / 冒险
◎语  言 英语 / 西班牙语
◎上映日期 2019-02-05(台湾) / 2019-02-14(美国) / 2019-02-22(中国大陆)
◎IMDb评分  7.5/10 from 90737 users
◎IMDb链接  http://www.imdb.com/title/tt0437086
◎豆瓣评分 7.6/10 from 329373 users
◎豆瓣链接 https://movie.douban.com/subject/1652592/
◎片  长 122分钟
◎导  演 罗伯特·罗德里格兹 Robert Rodriguez
◎编  剧 詹姆斯·卡梅隆 James Cameron / 莱塔·卡罗格里迪斯 Laeta Kalogridis / 木城幸人 Yukito Kishiro
◎主  演 罗莎·萨拉查 Rosa Salazar
      克里斯托弗·沃尔兹 Christoph Waltz
      基恩·约翰逊 Keean Johnson
      艾德·斯克林 Ed Skrein
      马赫沙拉·阿里 Mahershala Ali
      詹妮弗·康纳利 Jennifer Connelly
      杰基·厄尔·哈利 Jackie Earle Haley
      陈东兰 Lana Condor
      小豪尔赫·兰登伯格 Jorge Lendeborg Jr.
      艾莎·冈萨雷斯 Eiza González
      卡斯帕·凡·迪恩 Casper Van Dien
      米歇尔·罗德里格兹 Michelle Rodriguez
      爱德华·诺顿 Edward Norton
      杰夫·法赫 Jeff Fahey
      山姆·麦地那 Sam Medina
      德里克·梅耶斯 Derek Mears
      艾丽·拉蒙特 Elle LaMont
      豪尔赫·A·希门尼斯 Jorge A. Jimenez
      马克·扎罗 Marko Zaror
      比利·布莱尔 Billy Blair
      伦纳德·吴 Leonard Wu
      特里斯坦·里格斯 Tristan Riggs
      迈克尔·洛夫·托利弗 Michael Love Toliver
      金 King
      达塞尔·丹妮尔 Darcel Danielle
      Mark A. White

◎标  签 科幻 | 机械人 | 漫画改编 | 行动 | 美国 | 赛博朋克 | 2019 | 动画
◎简  介  
  故事发生在悠远的26世纪,外科医生依德(克里斯托弗·瓦尔兹 Christoph Waltz 饰)在渣滓场里捡到了只剩下头部的机械少女将她带回家中,给她装上了原本为自己已故的女儿所预备的义体,并取名阿丽塔(罗莎·萨拉扎尔 Rosa Salazar 饰)。苏醒后的阿丽塔对这个五彩斑斓但却暴力而又残暴的天下发生了稠密的爱好,在结识了青年雨果(基恩·约翰逊 Keean Johnson 饰)后,阿丽塔起头打仗名为灵活球的活动,并在角逐中展现出了惊人的肉搏天赋。
在废铁城居民们的头顶,漂泊着庞大的浮空城市撒冷,废铁城居民们的一切劳作和支出,都是为了给撒冷供给继续运作的燃料。在大财阀维克特(马赫沙拉·阿里 Mahershala Ali 饰)所设立的灵活球角逐中,终极获得冠军的人可以获得前往撒冷生活的资历,阿丽塔决议操纵自己的肉搏天赋加入角逐,却被卷入了一个庞大的诡计当中。
◎获奖情况  
  第5届豆瓣电影年度榜单(2018)
  最值得期待的外语电影(提名)
  第4届豆瓣电影年度榜单(2017)
  最值得期待的外语电影(提名)

  1. Video
  2. ID                                       : 1
  3. Format                                   : AVC
  4. Format/Info                              : Advanced Video Codec
  5. Format profile                           : [email protected]
  6. Format settings                          : CABAC / 4 Ref Frames
  7. Format settings, CABAC                   : Yes
  8. Format settings, ReFrames                : 4 frames
  9. Codec ID                                 : V_MPEG4/ISO/AVC
  10. Duration                                 : 2 h 1 min
  11. Bit rate                                 : 1 899 kb/s
  12. Nominal bit rate                         : 3 072 kb/s
  13. Width                                    : 1 920 pixels
  14. Height                                   : 1 080 pixels
  15. Display aspect ratio                     : 16:9
  16. Frame rate mode                          : Constant
  17. Frame rate                               : 23.976 (24000/1001) FPS
  18. Color space                              : YUV
  19. Chroma subsampling                       : 4:2:0
  20. Bit depth                                : 8 bits
  21. Scan type                                : Progressive
  22. Bits/(Pixel*Frame)                       : 0.038
  23. Stream size                              : 1.62 GiB (88%)
  24. Title                                    : Alita.Battle.Angel.2019.1080p.WEBRip.AAC2.0.x264-BADQUALITY
  25. Writing library                          : x264 core 148
  26. Encoding settings                        : cabac=1 / ref=3 / deblock=1:0:0 / analyse=0x3:0x113 / me=hex / subme=7 / psy=1 / psy_rd=1.00:0.00 / mixed_ref=1 / me_range=16 / chroma_me=1 / trellis=1 / 8x8dct=1 / cqm=0 / deadzone=21,11 / fast_pskip=1 / chroma_qp_offset=-2 / threads=18 / lookahead_threads=3 / sliced_threads=0 / nr=0 / decimate=1 / interlaced=0 / bluray_compat=0 / constrained_intra=0 / bframes=3 / b_pyramid=2 / b_adapt=1 / b_bias=0 / direct=1 / weightb=1 / open_gop=0 / weightp=2 / keyint=75 / keyint_min=38 / scenecut=0 / intra_refresh=0 / rc_lookahead=40 / rc=cbr / mbtree=1 / bitrate=3072 / ratetol=1.0 / qcomp=0.60 / qpmin=0 / qpmax=69 / qpstep=4 / vbv_maxrate=3072 / vbv_bufsize=640 / nal_hrd=none / filler=0 / ip_ratio=1.40 / aq=1:1.00
  27. Language                                 : English
  28. Default                                  : Yes
  29. Forced                                   : No
  30. Audio
  31. ID                                       : 2
  32. Format                                   : AAC LC
  33. Format/Info                              : Advanced Audio Codec Low Complexity
  34. Codec ID                                 : A_AAC-2
  35. Duration                                 : 2 h 1 min
  36. Bit rate                                 : 256 kb/s
  37. Channel(s)                               : 2 channels
  38. Channel layout                           : L R
  39. Sampling rate                            : 44.1 kHz
  40. Frame rate                               : 43.066 FPS (1024 SPF)
  41. Compression mode                         : Lossy
  42. Delay relative to video                  : -129 ms
  43. Stream size                              : 223 MiB (12%)
  44. Title                                    : Alita.Battle.Angel.2019.1080p.WEBRip.AAC2.0.x264-BADQUALITY
  45. Language                                 : English
  46. Default                                  : Yes
  47. Forced                                   : No
  48. Text #1
  49. ID                                       : 3
  50. Format                                   : UTF-8
  51. Codec ID                                 : S_TEXT/UTF8
  52. Codec ID/Info                            : UTF-8 Plain Text
  53. Duration                                 : 1 h 55 min
  54. Bit rate                                 : 41 b/s
  55. Count of elements                        : 1347
  56. Stream size                              : 34.9 KiB (0%)
  57. Language                                 : English
  58. Default                                  : Yes
  59. Forced                                   : No
  60. Text #2
  61. ID                                       : 4
  62. Format                                   : UTF-8
  63. Codec ID                                 : S_TEXT/UTF8
  64. Codec ID/Info                            : UTF-8 Plain Text
  65. Duration                                 : 1 h 55 min
  66. Bit rate                                 : 46 b/s
  67. Count of elements                        : 1588
  68. Stream size                              : 39.4 KiB (0%)
  69. Title                                    : SDH
  70. Language                                 : English
  71. Default                                  : No
  72. Forced                                   : No
复制代码






                                       
                                       

                                       
                                       
                                       




回复

使用道具 举报

懒得打字嘛,点击右侧快捷回复 【右侧内容,后台自定义】
您需要登录后才可以回帖 登录 | 立即加入

本版积分规则

Archiver|小黑屋| 蓝光电影网 |网站地图

Copyright © 2021 Comsenz Inc. Powered by 蓝光电影网

蓝光电影网

本站内容由用户自主分享和转载自互联网,转载目的在于传递更多信息,并不代表本网赞同其观点和对其真实性负责。

如有侵权、违反国家法律政策行为,请联系我们,我们会第一时间及时清除和处理!

举报反馈邮箱:[email protected]

快速回复 返回顶部 返回列表