找回密码

蓝光电影网

查看: 35|回复: 0

[爱情] 狂野状态 Savage.State.2019.FRENCH.1080p.WEB-DL.DD5.1.H264-FGT 4.18GB

[复制链接]
蓝光币
511
发表于 2021-1-29 16:06:07 | 显示全部楼层 |阅读模式


◎译  名 狂野状态/Savage State
◎片  名 L'état sauvage
◎年  代 2019
◎产  地 法国
◎类  别 恋爱 / 西部
◎语  言 法语,英语
◎上映日期 2020-02-26(法国)
◎IMDb评分  4.9/10 from 232 users
◎IMDb链接  https://www.imdb.com/title/tt8770976/
◎豆瓣评分 /10 from 0 users
◎豆瓣链接 https://movie.douban.com/subject/30465744/
◎片  长 118分钟
◎导  演 大卫·佩罗 David Perrault
◎编  剧 大卫·佩罗 David Perrault
◎主  演 凯文·让森斯 Kevin Janssens
       爱丽丝·伊萨 Alice Isaaz
       黛博拉·弗朗索瓦 Déborah Fran?ois
       布鲁诺·托德契尼 Bruno Todeschini
       康斯坦斯·多利 Constance Dollé
◎标  签 法国 | 美国西部 | 2019 | 2010s | (电脑) | (2019) | 长片 | 美国内战
◎简  介


  When the American Civil War breaks out, a family of french settlers must abandon their Missouri home to flee and go back to Paris. They're escorted by a former mercenary m.ysgou.cc whose troubled past soon catches up with him.
  1. Video
  2. ID                                       : 1
  3. Format                                   : AVC
  4. Format/Info                              : Advanced Video Codec
  5. Format profile                           : [email protected]
  6. Format settings                          : CABAC / 5 Ref Frames
  7. Format settings, CABAC                   : Yes
  8. Format settings, Reference frames        : 5 frames
  9. Codec ID                                 : V_MPEG4/ISO/AVC
  10. Duration                                 : 2 h 0 min
  11. Bit rate                                 : 4 568 kb/s
  12. Width                                    : 1 916 pixels
  13. Height                                   : 800 pixels
  14. Display aspect ratio                     : 2.40:1
  15. Frame rate mode                          : Constant
  16. Frame rate                               : 24.000 FPS
  17. Color space                              : YUV
  18. Chroma subsampling                       : 4:2:0
  19. Bit depth                                : 8 bits
  20. Scan type                                : Progressive
  21. Bits/(Pixel*Frame)                       : 0.124
  22. Stream size                              : 3.85 GiB (92%)
  23. Language                                 : French
  24. Default                                  : Yes
  25. Forced                                   : No
  26. Color range                              : Limited
  27. Color primaries                          : BT.709
  28. Transfer characteristics                 : BT.709
  29. Matrix coefficients                      : BT.709
  30. Audio
  31. ID                                       : 2
  32. Format                                   : AC-3
  33. Format/Info                              : Audio Coding 3
  34. Commercial name                          : Dolby Digital
  35. Codec ID                                 : A_AC3
  36. Duration                                 : 2 h 0 min
  37. Bit rate mode                            : Constant
  38. Bit rate                                 : 384 kb/s
  39. Channel(s)                               : 6 channels
  40. Channel layout                           : L R C LFE Ls Rs
  41. Sampling rate                            : 48.0 kHz
  42. Frame rate                               : 31.250 FPS (1536 SPF)
  43. Compression mode                         : Lossy
  44. Stream size                              : 331 MiB (8%)
  45. Title                                    : DD 5.1
  46. Language                                 : French
  47. Service kind                             : Complete Main
  48. Default                                  : Yes
  49. Forced                                   : No
  50. Text
  51. ID                                       : 3
  52. Format                                   : UTF-8
  53. Codec ID                                 : S_TEXT/UTF8
  54. Codec ID/Info                            : UTF-8 Plain Text
  55. Duration                                 : 1 h 56 min
  56. Bit rate                                 : 25 b/s
  57. Count of elements                        : 911
  58. Stream size                              : 21.5 KiB (0%)
  59. Language                                 : English
  60. Default                                  : Yes
  61. Forced                                   : No
复制代码






                                       
                                       

                                       
                                       
                                       




回复

使用道具 举报

懒得打字嘛,点击右侧快捷回复 【右侧内容,后台自定义】
您需要登录后才可以回帖 登录 | 立即加入

本版积分规则

Archiver|小黑屋| 蓝光电影网 |网站地图

Copyright © 2021 Comsenz Inc. Powered by 蓝光电影网

蓝光电影网

本站内容由用户自主分享和转载自互联网,转载目的在于传递更多信息,并不代表本网赞同其观点和对其真实性负责。

如有侵权、违反国家法律政策行为,请联系我们,我们会第一时间及时清除和处理!

举报反馈邮箱:[email protected]

快速回复 返回顶部 返回列表