找回密码

蓝光电影网

查看: 36|回复: 0

[爱情] 接招吧!那边的女孩 Lock-On.Love.2018.JAPANESE.1080p.NF.WEBRip.DDP5.1.x264-NOGRP 1.86GB

[复制链接]
蓝光币
511
发表于 2021-1-24 13:12:36 | 显示全部楼层 |阅读模式
[img][/img]

◎译  名 接招吧!何处的女孩/Are You Ready? Hey You Girl!/Kakugo wa ii ka soko no joshi./就是要你爱上我(台)
◎片  名 覚悟はいいかそこの女子。
◎年  代 2018
◎产  地 日本
◎类  别 恋爱
◎语  言 日语
◎上映日期 2018-10-12(日本)
◎IMDb评分  6.6/10 from 189 users
◎IMDb链接  https://www.imdb.com/title/tt8718066/
◎豆瓣评分 5.4/10 from 683 users
◎豆瓣链接 https://movie.douban.com/subject/30200998/
◎片  长 95分钟
◎导  演 井口升 Noboru Iguchi
◎编  剧 李正姫 Jung-hee Lee
◎主  演 中川弘愿 Taishi Nakagawa
       唐田英里佳 Erika Karata
       伊藤健太郎 Kentaro Ito
       若林时英 Jiei Wakabayashi
       甲斐翔真 Shoma Kai
       荒川良良 YosiYosi Arakawa
       小池彻平 Teppei Koike
◎标  签 日本 | 恋爱 | 校园 | 青春 | 2018 | 漫画改编 | 漫画小说真人版 | 笑剧
◎简  介


  明显很受接待却没有女朋友,观赏用男人,古谷斗和,在朋友的刺激下,下定决心要交到女朋友!方针是——三轮美苑,全学年最受接待的女生,来接招吧!
◎获奖情况
  第42届日本电影学院奖 ?(2019)
  最好新人 中川弘愿
  1. Video
  2. ID                                       : 1
  3. Format                                   : AVC
  4. Format/Info                              : Advanced Video Codec
  5. Format profile                           : [email protected]
  6. Format settings                          : CABAC / 4 Ref Frames
  7. Format settings, CABAC                   : Yes
  8. Format settings, Reference frames        : 4 frames
  9. Codec ID                                 : V_MPEG4/ISO/AVC
  10. Duration                                 : 1 h 35 min
  11. Bit rate mode                            : Variable
  12. Bit rate                                 : 2 145 kb/s
  13. Maximum bit rate                         : 20.0 Mb/s
  14. Width                                    : 1 920 pixels
  15. Height                                   : 1 080 pixels
  16. Display aspect ratio                     : 16:9
  17. Frame rate mode                          : Constant
  18. Frame rate                               : 23.976 (24000/1001/189150) FPS
  19. Color space                              : YUV
  20. Chroma subsampling                       : 4:2:0
  21. Bit depth                                : 8 bits
  22. Scan type                                : Progressive
  23. Bits/(Pixel*Frame)                       : 0.043
  24. Stream size                              : 1.43 GiB (77%)
  25. Writing library                          : x264 core 148 r2717 0d2410d
  26. Encoding settings                        : cabac=1 / ref=4 / deblock=1:0:0 / analyse=0x3:0x111 / me=umh / subme=10 / psy=1 / psy_rd=1.00:0.00 / mixed_ref=1 / me_range=120 / chroma_me=1 / trellis=2 / 8x8dct=1 / cqm=0 / deadzone=21,11 / fast_pskip=1 / chroma_qp_offset=-2 / threads=8 / lookahead_threads=2 / sliced_threads=0 / nr=0 / decimate=1 / interlaced=0 / bluray_compat=0 / stitchable=1 / constrained_intra=0 / bframes=16 / b_pyramid=2 / b_adapt=2 / b_bias=0 / direct=3 / weightb=1 / open_gop=0 / weightp=2 / keyint=240 / keyint_min=121 / scenecut=0 / intra_refresh=0 / rc_lookahead=240 / rc=crf / mbtree=1 / crf=24.0 / qcomp=0.50 / qpmin=6 / qpmax=51 / qpstep=4 / vbv_maxrate=20000 / vbv_bufsize=25000 / crf_max=0.0 / nal_hrd=vbr / filler=0 / ip_ratio=1.40 / aq=1:0.80
  27. Default                                  : Yes
  28. Forced                                   : No
  29. Audio
  30. ID                                       : 2
  31. Format                                   : E-AC-3
  32. Format/Info                              : Enhanced AC-3
  33. Commercial name                          : Dolby Digital Plus
  34. Codec ID                                 : A_EAC3
  35. Duration                                 : 1 h 35 min
  36. Bit rate mode                            : Constant
  37. Bit rate                                 : 640 kb/s
  38. Channel(s)                               : 6 channels
  39. Channel layout                           : L R C LFE Ls Rs
  40. Sampling rate                            : 48.0 kHz
  41. Frame rate                               : 31.250 FPS (1536 SPF)
  42. Compression mode                         : Lossy
  43. Stream size                              : 436 MiB (23%)
  44. Title                                    : Japanese
  45. Language                                 : Japanese
  46. Service kind                             : Complete Main
  47. Default                                  : Yes
  48. Forced                                   : No
  49. Text #1
  50. ID                                       : 3
  51. Format                                   : UTF-8
  52. Codec ID                                 : S_TEXT/UTF8
  53. Codec ID/Info                            : UTF-8 Plain Text
  54. Duration                                 : 1 h 30 min
  55. Bit rate                                 : 46 b/s
  56. Count of elements                        : 1221
  57. Stream size                              : 30.6 KiB (0%)
  58. Language                                 : English
  59. Default                                  : Yes
  60. Forced                                   : No
  61. Text #2
  62. ID                                       : 4
  63. Format                                   : UTF-8
  64. Codec ID                                 : S_TEXT/UTF8
  65. Codec ID/Info                            : UTF-8 Plain Text
  66. Duration                                 : 1 h 34 min
  67. Bit rate                                 : 72 b/s
  68. Count of elements                        : 1528
  69. Stream size                              : 50.5 KiB (0%)
  70. Title                                    : SDH
  71. Language                                 : Japanese
  72. Default                                  : No
  73. Forced                                   : No
复制代码



                                       
                                       

                                       
                                       
                                       




回复

使用道具 举报

懒得打字嘛,点击右侧快捷回复 【右侧内容,后台自定义】
您需要登录后才可以回帖 登录 | 立即加入

本版积分规则

Archiver|小黑屋| 蓝光电影网 |网站地图

Copyright © 2021 Comsenz Inc. Powered by 蓝光电影网

蓝光电影网

本站内容由用户自主分享和转载自互联网,转载目的在于传递更多信息,并不代表本网赞同其观点和对其真实性负责。

如有侵权、违反国家法律政策行为,请联系我们,我们会第一时间及时清除和处理!

举报反馈邮箱:[email protected]

快速回复 返回顶部 返回列表