找回密码

蓝光电影网

查看: 74|回复: 0

[动作] 夏福特 Shaft.2019.1080p.NF.WEBRip.DDP5.1.Atmos.x264-NTG 3.89GB

[复制链接]
蓝光币
515
发表于 2019-6-28 18:00:01 | 显示全部楼层 |阅读模式


◎译  名 夏福特 / Shaft 2 / Son of Shaft / 夏福特之子 / 杀戮战警2 / 铁杆神探2
◎片  名 Shaft
◎年  代 2019
◎产  地 美国
◎类  别 行动 / 犯罪
◎语  言 英语
◎上映日期 2019-06-14(美国)
◎IMDb评分  6.3/10 from 1912 users
◎IMDb链接  http://www.imdb.com/title/tt4463894
◎豆瓣评分 7.5/10 from 77 users
◎豆瓣链接 https://movie.douban.com/subject/27116384/
◎片  长 111分钟
◎导  演 蒂姆·斯托瑞 Tim Story
◎编  剧 肯尼亚·巴里斯 Kenya Barris / 亚历克斯·巴诺 Alex Barnow / 欧内斯特·泰迪曼 Ernest Tidyman
◎主  演 塞缪尔·杰克逊 Samuel L. Jackson
      杰西·厄舍 Jessie Usher
      理查德·朗德特里 Richard Roundtree
      雷吉娜·赫尔 Regina Hall
      亚历山德拉·希普 Alexandra Shipp
      马特·劳里亚 Matt Lauria
      提图斯·维里沃 Titus Welliver
      马索·曼恩 Method Man
      伊萨赫·德·班克尔 Isaach De Bankolé
      阿万·乔贾 Avan Jogia
      劳伦·维勒斯 Lauren Vélez
      伊恩·卡塞尔伯里 Ian Casselberry
      西尔维娅·杰弗里斯 Sylvia Jefferies
      迈克·顿斯顿 Mike Dunston
      查尔斯·格林 Charles Green
      艾德丽安·C·摩尔 Adrienne C. Moore
      乔恩·亚瑟 Jon Arthur
      肖恩·贝克 Sean Baker
      蒂莫西·卡尔 Timothy Carr
      大卫·邓斯顿 David Dunston
      何塞·阿尔弗雷多·费尔南德斯 José Alfredo Fernandez
      安东尼·B·哈里斯 Anthony B. Harris
      德梅特里·兰德尔 Demetri Landell
      汉斯·马雷罗 Hans Marrero
      布赖希亚·马歇尔 Brayhia Marshall
      肖恩·麦克米伦 Shaun McMillan
      本杰明·韦弗 Benjamin Weaver

◎标  签 行动 | 笑剧 | 美国 | 2019 | 犯罪 | 黑人 | 华纳 | 影院
◎简  介  
  杰西·厄舍加盟[杀戮战警]续作[夏福特之子](Son of Shaft,暂译),塞缪尔·杰克逊同时回归。本片由蒂姆·斯托瑞([佐州自救兄弟])执导,肯尼亚·巴里斯编剧。厄舍饰演杰克逊的儿子,他同时也是一位联邦观察局工作职员,更是收集专家。
  1. Video
  2. ID                                       : 1
  3. Format                                   : AVC
  4. Format/Info                              : Advanced Video Codec
  5. Format profile                           : [email protected]
  6. Format settings                          : CABAC / 3 Ref Frames
  7. Format settings, CABAC                   : Yes
  8. Format settings, ReFrames                : 3 frames
  9. Codec ID                                 : V_MPEG4/ISO/AVC
  10. Duration                                 : 1 h 52 min
  11. Bit rate mode                            : Variable
  12. Bit rate                                 : 4 220 kb/s
  13. Maximum bit rate                         : 6 330 kb/s
  14. Width                                    : 1 920 pixels
  15. Height                                   : 1 080 pixels
  16. Display aspect ratio                     : 16:9
  17. Frame rate mode                          : Constant
  18. Frame rate                               : 24.000 FPS
  19. Color space                              : YUV
  20. Chroma subsampling                       : 4:2:0
  21. Bit depth                                : 8 bits
  22. Scan type                                : Progressive
  23. Bits/(Pixel*Frame)                       : 0.085
  24. Stream size                              : 3.28 GiB (84%)
  25. Writing library                          : x264 core 148 r2715 7e75228
  26. Encoding settings                        : cabac=1 / ref=3 / deblock=1:0:0 / analyse=0x1:0x111 / me=umh / subme=10 / psy=1 / psy_rd=1.00:0.00 / mixed_ref=1 / me_range=24 / chroma_me=1 / trellis=2 / 8x8dct=0 / cqm=0 / deadzone=21,11 / fast_pskip=1 / chroma_qp_offset=-2 / threads=6 / lookahead_threads=1 / sliced_threads=0 / nr=0 / decimate=1 / interlaced=0 / bluray_compat=0 / stitchable=1 / constrained_intra=0 / bframes=2 / b_pyramid=0 / b_adapt=2 / b_bias=0 / direct=3 / weightb=1 / open_gop=0 / weightp=2 / keyint=48 / keyint_min=25 / scenecut=0 / intra_refresh=0 / rc_lookahead=48 / rc=2pass / mbtree=1 / bitrate=4220 / ratetol=1.0 / qcomp=0.50 / qpmin=6 / qpmax=51 / qpstep=4 / cplxblur=20.0 / qblur=0.5 / vbv_maxrate=6330 / vbv_bufsize=8440 / nal_hrd=vbr / filler=0 / ip_ratio=1.40 / aq=1:1.00
  27. Default                                  : Yes
  28. Forced                                   : No
  29. Audio
  30. ID                                       : 2
  31. Format                                   : E-AC-3 JOC
  32. Format/Info                              : Enhanced AC-3 with Joint Object Coding
  33. Commercial name                          : Dolby Digital Plus with Dolby Atmos
  34. Codec ID                                 : A_EAC3
  35. Duration                                 : 1 h 52 min
  36. Bit rate mode                            : Constant
  37. Bit rate                                 : 768 kb/s
  38. Channel(s)                               : 6 channels
  39. Channel layout                           : L R C LFE Ls Rs
  40. Sampling rate                            : 48.0 kHz
  41. Frame rate                               : 31.250 FPS (1536 SPF)
  42. Compression mode                         : Lossy
  43. Stream size                              : 615 MiB (15%)
  44. Title                                    : English
  45. Language                                 : English
  46. Service kind                             : Complete Main
  47. Default                                  : Yes
  48. Forced                                   : No
  49. Complexity index                         : 16
  50. Number of dynamic objects                : 15
  51. Bed channel count                        : 1 channel
  52. Bed channel configuration                : LFE
  53. Text #1
  54. ID                                       : 3
  55. Format                                   : UTF-8
  56. Codec ID                                 : S_TEXT/UTF8
  57. Codec ID/Info                            : UTF-8 Plain Text
  58. Duration                                 : 1 h 51 min
  59. Bit rate                                 : 89 b/s
  60. Count of elements                        : 2210
  61. Stream size                              : 73.2 KiB (0%)
  62. Language                                 : English
  63. Default                                  : No
  64. Forced                                   : No
  65. Text #2
  66. ID                                       : 4
  67. Format                                   : UTF-8
  68. Codec ID                                 : S_TEXT/UTF8
  69. Codec ID/Info                            : UTF-8 Plain Text
  70. Duration                                 : 1 h 51 min
  71. Bit rate                                 : 99 b/s
  72. Count of elements                        : 2515
  73. Stream size                              : 81.0 KiB (0%)
  74. Title                                    : SDH
  75. Language                                 : English
  76. Default                                  : No
  77. Forced                                   : No
  78. Text #3
  79. ID                                       : 5
  80. Format                                   : UTF-8
  81. Codec ID                                 : S_TEXT/UTF8
  82. Codec ID/Info                            : UTF-8 Plain Text
  83. Duration                                 : 1 h 50 min
  84. Bit rate                                 : 128 b/s
  85. Count of elements                        : 1839
  86. Stream size                              : 104 KiB (0%)
  87. Language                                 : Arabic
  88. Default                                  : No
  89. Forced                                   : No
  90. Text #4
  91. ID                                       : 6
  92. Format                                   : UTF-8
  93. Codec ID                                 : S_TEXT/UTF8
  94. Codec ID/Info                            : UTF-8 Plain Text
  95. Duration                                 : 1 h 50 min
  96. Bit rate                                 : 68 b/s
  97. Count of elements                        : 1978
  98. Stream size                              : 55.2 KiB (0%)
  99. Language                                 : Czech
  100. Default                                  : No
  101. Forced                                   : No
  102. Text #5
  103. ID                                       : 7
  104. Format                                   : UTF-8
  105. Codec ID                                 : S_TEXT/UTF8
  106. Codec ID/Info                            : UTF-8 Plain Text
  107. Duration                                 : 1 h 50 min
  108. Bit rate                                 : 57 b/s
  109. Count of elements                        : 1391
  110. Stream size                              : 46.5 KiB (0%)
  111. Language                                 : Danish
  112. Default                                  : No
  113. Forced                                   : No
  114. Text #6
  115. ID                                       : 8
  116. Format                                   : UTF-8
  117. Codec ID                                 : S_TEXT/UTF8
  118. Codec ID/Info                            : UTF-8 Plain Text
  119. Duration                                 : 1 h 50 min
  120. Bit rate                                 : 63 b/s
  121. Count of elements                        : 1785
  122. Stream size                              : 51.5 KiB (0%)
  123. Language                                 : German
  124. Default                                  : No
  125. Forced                                   : No
  126. Text #7
  127. ID                                       : 9
  128. Format                                   : UTF-8
  129. Codec ID                                 : S_TEXT/UTF8
  130. Codec ID/Info                            : UTF-8 Plain Text
  131. Duration                                 : 1 h 50 min
  132. Bit rate                                 : 104 b/s
  133. Count of elements                        : 1880
  134. Stream size                              : 84.5 KiB (0%)
  135. Language                                 : Greek
  136. Default                                  : No
  137. Forced                                   : No
  138. Text #8
  139. ID                                       : 10
  140. Format                                   : UTF-8
  141. Codec ID                                 : S_TEXT/UTF8
  142. Codec ID/Info                            : UTF-8 Plain Text
  143. Duration                                 : 1 h 50 min
  144. Bit rate                                 : 63 b/s
  145. Count of elements                        : 1731
  146. Stream size                              : 51.5 KiB (0%)
  147. Language                                 : Spanish
  148. Default                                  : No
  149. Forced                                   : No
  150. Text #9
  151. ID                                       : 11
  152. Format                                   : UTF-8
  153. Codec ID                                 : S_TEXT/UTF8
  154. Codec ID/Info                            : UTF-8 Plain Text
  155. Duration                                 : 1 h 50 min
  156. Bit rate                                 : 60 b/s
  157. Count of elements                        : 1946
  158. Stream size                              : 48.8 KiB (0%)
  159. Title                                    : European
  160. Language                                 : Spanish
  161. Default                                  : No
  162. Forced                                   : No
  163. Text #10
  164. ID                                       : 12
  165. Format                                   : UTF-8
  166. Codec ID                                 : S_TEXT/UTF8
  167. Codec ID/Info                            : UTF-8 Plain Text
  168. Duration                                 : 1 h 50 min
  169. Bit rate                                 : 59 b/s
  170. Count of elements                        : 1974
  171. Stream size                              : 48.0 KiB (0%)
  172. Language                                 : Finnish
  173. Default                                  : No
  174. Forced                                   : No
  175. Text #11
  176. ID                                       : 13
  177. Format                                   : UTF-8
  178. Codec ID                                 : S_TEXT/UTF8
  179. Codec ID/Info                            : UTF-8 Plain Text
  180. Duration                                 : 1 h 50 min
  181. Bit rate                                 : 73 b/s
  182. Count of elements                        : 1777
  183. Stream size                              : 59.3 KiB (0%)
  184. Language                                 : French
  185. Default                                  : No
  186. Forced                                   : No
  187. Text #12
  188. ID                                       : 14
  189. Format                                   : UTF-8
  190. Codec ID                                 : S_TEXT/UTF8
  191. Codec ID/Info                            : UTF-8 Plain Text
  192. Duration                                 : 1 h 50 min
  193. Bit rate                                 : 103 b/s
  194. Count of elements                        : 1778
  195. Stream size                              : 83.9 KiB (0%)
  196. Language                                 : Hebrew
  197. Default                                  : No
  198. Forced                                   : No
  199. Text #13
  200. ID                                       : 15
  201. Format                                   : UTF-8
  202. Codec ID                                 : S_TEXT/UTF8
  203. Codec ID/Info                            : UTF-8 Plain Text
  204. Duration                                 : 1 h 50 min
  205. Bit rate                                 : 166 b/s
  206. Count of elements                        : 1988
  207. Stream size                              : 134 KiB (0%)
  208. Language                                 : Hindi
  209. Default                                  : No
  210. Forced                                   : No
  211. Text #14
  212. ID                                       : 16
  213. Format                                   : UTF-8
  214. Codec ID                                 : S_TEXT/UTF8
  215. Codec ID/Info                            : UTF-8 Plain Text
  216. Duration                                 : 1 h 50 min
  217. Bit rate                                 : 61 b/s
  218. Count of elements                        : 1963
  219. Stream size                              : 49.9 KiB (0%)
  220. Language                                 : Hungarian
  221. Default                                  : No
  222. Forced                                   : No
  223. Text #15
  224. ID                                       : 17
  225. Format                                   : UTF-8
  226. Codec ID                                 : S_TEXT/UTF8
  227. Codec ID/Info                            : UTF-8 Plain Text
  228. Duration                                 : 1 h 50 min
  229. Bit rate                                 : 66 b/s
  230. Count of elements                        : 1848
  231. Stream size                              : 53.4 KiB (0%)
  232. Language                                 : Indonesian
  233. Default                                  : No
  234. Forced                                   : No
  235. Text #16
  236. ID                                       : 18
  237. Format                                   : UTF-8
  238. Codec ID                                 : S_TEXT/UTF8
  239. Codec ID/Info                            : UTF-8 Plain Text
  240. Duration                                 : 1 h 50 min
  241. Bit rate                                 : 66 b/s
  242. Count of elements                        : 1867
  243. Stream size                              : 53.8 KiB (0%)
  244. Language                                 : Italian
  245. Default                                  : No
  246. Forced                                   : No
  247. Text #17
  248. ID                                       : 19
  249. Format                                   : UTF-8
  250. Codec ID                                 : S_TEXT/UTF8
  251. Codec ID/Info                            : UTF-8 Plain Text
  252. Duration                                 : 1 h 50 min
  253. Bit rate                                 : 51 b/s
  254. Count of elements                        : 1813
  255. Stream size                              : 41.9 KiB (0%)
  256. Language                                 : Japanese
  257. Default                                  : No
  258. Forced                                   : No
  259. Text #18
  260. ID                                       : 20
  261. Format                                   : UTF-8
  262. Codec ID                                 : S_TEXT/UTF8
  263. Codec ID/Info                            : UTF-8 Plain Text
  264. Duration                                 : 1 h 50 min
  265. Bit rate                                 : 71 b/s
  266. Count of elements                        : 1961
  267. Stream size                              : 57.5 KiB (0%)
  268. Language                                 : Korean
  269. Default                                  : No
  270. Forced                                   : No
  271. Text #19
  272. ID                                       : 21
  273. Format                                   : UTF-8
  274. Codec ID                                 : S_TEXT/UTF8
  275. Codec ID/Info                            : UTF-8 Plain Text
  276. Duration                                 : 1 h 50 min
  277. Bit rate                                 : 59 b/s
  278. Count of elements                        : 1914
  279. Stream size                              : 48.3 KiB (0%)
  280. Language                                 : Norwegian Bokmal
  281. Default                                  : No
  282. Forced                                   : No
  283. Text #20
  284. ID                                       : 22
  285. Format                                   : UTF-8
  286. Codec ID                                 : S_TEXT/UTF8
  287. Codec ID/Info                            : UTF-8 Plain Text
  288. Duration                                 : 1 h 50 min
  289. Bit rate                                 : 56 b/s
  290. Count of elements                        : 1473
  291. Stream size                              : 45.9 KiB (0%)
  292. Language                                 : Dutch
  293. Default                                  : No
  294. Forced                                   : No
  295. Text #21
  296. ID                                       : 23
  297. Format                                   : UTF-8
  298. Codec ID                                 : S_TEXT/UTF8
  299. Codec ID/Info                            : UTF-8 Plain Text
  300. Duration                                 : 1 h 50 min
  301. Bit rate                                 : 55 b/s
  302. Count of elements                        : 1868
  303. Stream size                              : 44.9 KiB (0%)
  304. Language                                 : Polish
  305. Default                                  : No
  306. Forced                                   : No
  307. Text #22
  308. ID                                       : 24
  309. Format                                   : UTF-8
  310. Codec ID                                 : S_TEXT/UTF8
  311. Codec ID/Info                            : UTF-8 Plain Text
  312. Duration                                 : 1 h 50 min
  313. Bit rate                                 : 63 b/s
  314. Count of elements                        : 1902
  315. Stream size                              : 51.4 KiB (0%)
  316. Language                                 : Portuguese
  317. Default                                  : No
  318. Forced                                   : No
  319. Text #23
  320. ID                                       : 25
  321. Format                                   : UTF-8
  322. Codec ID                                 : S_TEXT/UTF8
  323. Codec ID/Info                            : UTF-8 Plain Text
  324. Duration                                 : 1 h 50 min
  325. Bit rate                                 : 65 b/s
  326. Count of elements                        : 1896
  327. Stream size                              : 53.0 KiB (0%)
  328. Title                                    : Brazilian
  329. Language                                 : Portuguese
  330. Default                                  : No
  331. Forced                                   : No
  332. Text #24
  333. ID                                       : 26
  334. Format                                   : UTF-8
  335. Codec ID                                 : S_TEXT/UTF8
  336. Codec ID/Info                            : UTF-8 Plain Text
  337. Duration                                 : 1 h 50 min
  338. Bit rate                                 : 64 b/s
  339. Count of elements                        : 1900
  340. Stream size                              : 51.7 KiB (0%)
  341. Language                                 : Romanian
  342. Default                                  : No
  343. Forced                                   : No
  344. Text #25
  345. ID                                       : 27
  346. Format                                   : UTF-8
  347. Codec ID                                 : S_TEXT/UTF8
  348. Codec ID/Info                            : UTF-8 Plain Text
  349. Duration                                 : 1 h 50 min
  350. Bit rate                                 : 119 b/s
  351. Count of elements                        : 1990
  352. Stream size                              : 96.9 KiB (0%)
  353. Language                                 : Russian
  354. Default                                  : No
  355. Forced                                   : No
  356. Text #26
  357. ID                                       : 28
  358. Format                                   : UTF-8
  359. Codec ID                                 : S_TEXT/UTF8
  360. Codec ID/Info                            : UTF-8 Plain Text
  361. Duration                                 : 1 h 50 min
  362. Bit rate                                 : 63 b/s
  363. Count of elements                        : 1627
  364. Stream size                              : 51.1 KiB (0%)
  365. Language                                 : Swedish
  366. Default                                  : No
  367. Forced                                   : No
  368. Text #27
  369. ID                                       : 29
  370. Format                                   : UTF-8
  371. Codec ID                                 : S_TEXT/UTF8
  372. Codec ID/Info                            : UTF-8 Plain Text
  373. Duration                                 : 1 h 50 min
  374. Bit rate                                 : 148 b/s
  375. Count of elements                        : 1984
  376. Stream size                              : 120 KiB (0%)
  377. Language                                 : Thai
  378. Default                                  : No
  379. Forced                                   : No
  380. Text #28
  381. ID                                       : 30
  382. Format                                   : UTF-8
  383. Codec ID                                 : S_TEXT/UTF8
  384. Codec ID/Info                            : UTF-8 Plain Text
  385. Duration                                 : 1 h 50 min
  386. Bit rate                                 : 62 b/s
  387. Count of elements                        : 1941
  388. Stream size                              : 50.7 KiB (0%)
  389. Language                                 : Turkish
  390. Default                                  : No
  391. Forced                                   : No
  392. Text #29
  393. ID                                       : 31
  394. Format                                   : UTF-8
  395. Codec ID                                 : S_TEXT/UTF8
  396. Codec ID/Info                            : UTF-8 Plain Text
  397. Duration                                 : 1 h 50 min
  398. Bit rate                                 : 84 b/s
  399. Count of elements                        : 1955
  400. Stream size                              : 68.1 KiB (0%)
  401. Language                                 : Vietnamese
  402. Default                                  : No
  403. Forced                                   : No
  404. Text #30
  405. ID                                       : 32
  406. Format                                   : UTF-8
  407. Codec ID                                 : S_TEXT/UTF8
  408. Codec ID/Info                            : UTF-8 Plain Text
  409. Duration                                 : 1 h 50 min
  410. Bit rate                                 : 64 b/s
  411. Count of elements                        : 1980
  412. Stream size                              : 51.8 KiB (0%)
  413. Title                                    : Simplified
  414. Language                                 : Chinese
  415. Default                                  : No
  416. Forced                                   : No
  417. Text #31
  418. ID                                       : 33
  419. Format                                   : UTF-8
  420. Codec ID                                 : S_TEXT/UTF8
  421. Codec ID/Info                            : UTF-8 Plain Text
  422. Duration                                 : 1 h 50 min
  423. Bit rate                                 : 68 b/s
  424. Count of elements                        : 1982
  425. Stream size                              : 55.1 KiB (0%)
  426. Title                                    : Traditional
  427. Language                                 : Chinese
  428. Default                                  : No
  429. Forced                                   : No
复制代码






                                       
                                       

                                       
                                       
                                       




回复

使用道具 举报

懒得打字嘛,点击右侧快捷回复 【右侧内容,后台自定义】
您需要登录后才可以回帖 登录 | 立即加入

本版积分规则

Archiver|小黑屋| 蓝光电影网 |网站地图

Copyright © 2021 Comsenz Inc. Powered by 蓝光电影网

蓝光电影网

本站内容由用户自主分享和转载自互联网,转载目的在于传递更多信息,并不代表本网赞同其观点和对其真实性负责。

如有侵权、违反国家法律政策行为,请联系我们,我们会第一时间及时清除和处理!

举报反馈邮箱:[email protected]

快速回复 返回顶部 返回列表