找回密码

蓝光电影网

查看: 11|回复: 0

[动作] 匿名杀手 Killers.Anonymous.2019.1080p.AMZN.WEBRip.DDP5.1.x264-NTG 6.15GB

[复制链接]
蓝光币
511
发表于 2019-6-28 17:51:58 | 显示全部楼层 |阅读模式


◎译  名 匿名杀手
◎片  名 Killers Anonymous
◎年  代 2019
◎产  地 英国
◎类  别 行动 / 悬疑 / 惊悚 / 犯罪
◎语  言 英语
◎IMDb链接  http://www.imdb.com/title/tt8400758
◎豆瓣评分 0/10 from 0 users
◎豆瓣链接 https://movie.douban.com/subject/30270757/
◎导  演 Martin Owen
◎编  剧 Seth Johnson / Elizabeth Morris / Martin Owen
◎主  演 加里·奥德曼 Gary Oldman
      杰西卡·阿尔芭 Jessica Alba
      苏琪·沃特豪斯 Suki Waterhouse
      汤米·弗拉纳根 Tommy Flanagan
      玛安娜·本灵 MyAnna Buring
      蒂姆·麦克纳尼 Tim McInnerny
      珊迪·弗罗斯特 Sadie Frost
      迈克尔·索恰 Michael Socha
      山姆·哈兹尔丁 Sam Hazeldine
      伊莎贝尔·艾伦 Isabelle Allen
      露丝·霍洛克斯 Ruth Horrocks
      Rhyon Nicole Brown
      Elliot James Langridge

◎标  签 加里·奥德曼 | 杰西卡·阿尔芭 | 英国电影 | 惊悚 | 行动 | 2019 | TBA | GaryOldman
◎简  介  
  加里·奥德曼、杰西卡·阿尔芭加盟惊悚片[知名杀手](Killers Anonymous,暂译)。该片由马丁·欧文([一路入魔])执导,今朝正在伦敦拍摄。卡司还有汤米·弗拉纳根(《紊乱之子》)、山姆·哈兹尔丁([机械师2:新生])等。黑暗之音告诉我们要吹灭他人生命的火焰。你规矩浅笑着与陌生人擦肩而过,却完全认识不到他们当下的杀意。这些杀手们有的深爱杀戮,有的不想再杀,他们需要倾吐和凝听。
  1. Video
  2. ID                                       : 1
  3. Format                                   : AVC
  4. Format/Info                              : Advanced Video Codec
  5. Format profile                           : [email protected]
  6. Format settings                          : CABAC / 4 Ref Frames
  7. Format settings, CABAC                   : Yes
  8. Format settings, ReFrames                : 4 frames
  9. Codec ID                                 : V_MPEG4/ISO/AVC
  10. Duration                                 : 1 h 35 min
  11. Bit rate mode                            : Constant
  12. Bit rate                                 : 8 538 kb/s
  13. Nominal bit rate                         : 10 000 kb/s
  14. Width                                    : 1 920 pixels
  15. Height                                   : 816 pixels
  16. Display aspect ratio                     : 2.35:1
  17. Frame rate mode                          : Constant
  18. Frame rate                               : 23.976 (24000/1001) FPS
  19. Color space                              : YUV
  20. Chroma subsampling                       : 4:2:0
  21. Bit depth                                : 8 bits
  22. Scan type                                : Progressive
  23. Bits/(Pixel*Frame)                       : 0.227
  24. Stream size                              : 5.72 GiB (93%)
  25. Default                                  : Yes
  26. Forced                                   : No
  27. Color range                              : Limited
  28. Color primaries                          : BT.709
  29. Transfer characteristics                 : BT.709
  30. Matrix coefficients                      : BT.709
  31. Audio
  32. ID                                       : 2
  33. Format                                   : E-AC-3
  34. Format/Info                              : Enhanced AC-3
  35. Commercial name                          : Dolby Digital Plus
  36. Codec ID                                 : A_EAC3
  37. Duration                                 : 1 h 35 min
  38. Bit rate mode                            : Constant
  39. Bit rate                                 : 640 kb/s
  40. Channel(s)                               : 6 channels
  41. Channel layout                           : L R C LFE Ls Rs
  42. Sampling rate                            : 48.0 kHz
  43. Frame rate                               : 31.250 FPS (1536 SPF)
  44. Compression mode                         : Lossy
  45. Stream size                              : 439 MiB (7%)
  46. Language                                 : English
  47. Service kind                             : Complete Main
  48. Default                                  : Yes
  49. Forced                                   : No
  50. Text #1
  51. ID                                       : 3
  52. Format                                   : UTF-8
  53. Codec ID                                 : S_TEXT/UTF8
  54. Codec ID/Info                            : UTF-8 Plain Text
  55. Duration                                 : 1 h 28 min
  56. Bit rate                                 : 68 b/s
  57. Count of elements                        : 1353
  58. Stream size                              : 44.3 KiB (0%)
  59. Language                                 : English
  60. Default                                  : No
  61. Forced                                   : No
  62. Text #2
  63. ID                                       : 4
  64. Format                                   : UTF-8
  65. Codec ID                                 : S_TEXT/UTF8
  66. Codec ID/Info                            : UTF-8 Plain Text
  67. Duration                                 : 1 h 28 min
  68. Bit rate                                 : 74 b/s
  69. Count of elements                        : 1502
  70. Stream size                              : 48.5 KiB (0%)
  71. Title                                    : SDH
  72. Language                                 : English
  73. Default                                  : No
  74. Forced                                   : No
复制代码






                                       
                                       

                                       
                                       
                                       




回复

使用道具 举报

懒得打字嘛,点击右侧快捷回复 【右侧内容,后台自定义】
您需要登录后才可以回帖 登录 | 立即加入

本版积分规则

Archiver|小黑屋| 蓝光电影网 |网站地图

Copyright © 2021 Comsenz Inc. Powered by 蓝光电影网

蓝光电影网

本站内容由用户自主分享和转载自互联网,转载目的在于传递更多信息,并不代表本网赞同其观点和对其真实性负责。

如有侵权、违反国家法律政策行为,请联系我们,我们会第一时间及时清除和处理!

举报反馈邮箱:[email protected]

快速回复 返回顶部 返回列表