找回密码

蓝光电影网

查看: 54|回复: 0

[爱情] 静悄悄的雨 Silent.Rain.2019.JAPANESE.ENSUBBED.1080p.AMZN.WEBRip.DDP5.1.x264-ISA 5.34GB

[复制链接]
蓝光币
519
发表于 2020-12-21 12:17:34 | 显示全部楼层 |阅读模式
[img][/img]

◎译  名 静静静的雨/It Stopped Raining/Silent Rain/静雨
◎片  名 静かな雨
◎年  代 2019
◎产  地 日本
◎类  别 恋爱
◎语  言 日语
◎上映日期 2019-10-11(釜山国际电影节) / 2020-02-07(日本)
◎IMDb评分  5.2/10 from 18 users
◎IMDb链接  https://www.imdb.com/title/tt12152790/
◎豆瓣评分 6.8/10 from 786 users
◎豆瓣链接 https://movie.douban.com/subject/33961421/
◎片  长 99分钟
◎导  演 中川龙太郎 Ry?tar? Nakagawa
◎编  剧 梅原英司 Eiji Umehara / 中川龙太郎 Ry?tar? Nakagawa
◎主  演 仲野太贺 Taiga Nagano
       卫藤美彩 Misa Eto
       三浦透子 Touko Miura
       坂东龙汰 Ryota Bando
       古馆宽治 Kanji Furutachi
       川濑阳太 Yohta Kawase
       河濑直美 Naomi Kawase
       萩原圣人 Masato Hagiwara
       村上淳 Jun Murakami
       绪方义博 Denden
◎标  签 日本 | 恋爱 | 2019 | 温情 | 剧情 | 文艺 | 哀痛 | 小说改编
◎简  介


  影片改编自在宫下奈都于2004年刊行的小说。纵使记忆消失,两个天下也会逐步堆叠。年轻的生物考古研讨助理行助被单独及经营着一家绸鱼烧小店的历所吸引。穷年累月,二人也逐步对相互有了更进一步的领会。可是,某个下雨的早晨,意外却忽然袭来。历在二人碰头后,竟发生了车祸。在医院醒来后,历损失了部分的短期记忆,而她落空的那部分记忆正是与行助相遇相知的那段时光。行助尝试着和昔日一样,生活在历的身旁,帮助她答复记忆,可在这进程中,他却犹豫了起来……
  1. Video
  2. ID                                       : 1
  3. Format                                   : AVC
  4. Format/Info                              : Advanced Video Codec
  5. Format profile                           : [email protected]
  6. Format settings                          : CABAC / 4 Ref Frames
  7. Format settings, CABAC                   : Yes
  8. Format settings, Reference frames        : 4 frames
  9. Codec ID                                 : V_MPEG4/ISO/AVC
  10. Duration                                 : 1 h 39 min
  11. Bit rate mode                            : Constant
  12. Bit rate                                 : 7 015 kb/s
  13. Nominal bit rate                         : 10 000 kb/s
  14. Width                                    : 1 920 pixels
  15. Height                                   : 1 080 pixels
  16. Display aspect ratio                     : 16:9
  17. Frame rate mode                          : Constant
  18. Frame rate                               : 23.976 (24000/1001/189150) FPS
  19. Color space                              : YUV
  20. Chroma subsampling                       : 4:2:0
  21. Bit depth                                : 8 bits
  22. Scan type                                : Progressive
  23. Bits/(Pixel*Frame)                       : 0.141
  24. Stream size                              : 4.89 GiB (92%)
  25. Language                                 : Japanese
  26. Default                                  : Yes
  27. Forced                                   : No
  28. Color range                              : Limited
  29. Color primaries                          : BT.709
  30. Transfer characteristics                 : BT.709
  31. Matrix coefficients                      : BT.709
  32. Audio
  33. ID                                       : 2
  34. Format                                   : E-AC-3
  35. Format/Info                              : Enhanced AC-3
  36. Commercial name                          : Dolby Digital Plus
  37. Codec ID                                 : A_EAC3
  38. Duration                                 : 1 h 39 min
  39. Bit rate mode                            : Constant
  40. Bit rate                                 : 640 kb/s
  41. Channel(s)                               : 6 channels
  42. Channel layout                           : L R C LFE Ls Rs
  43. Sampling rate                            : 48.0 kHz
  44. Frame rate                               : 31.250 FPS (1536 SPF)
  45. Compression mode                         : Lossy
  46. Stream size                              : 457 MiB (8%)
  47. Language                                 : Japanese
  48. Service kind                             : Complete Main
  49. Default                                  : No
  50. Forced                                   : No
复制代码



                                       
                                       

                                       
                                       
                                       




回复

使用道具 举报

懒得打字嘛,点击右侧快捷回复 【右侧内容,后台自定义】
您需要登录后才可以回帖 登录 | 立即加入

本版积分规则

Archiver|小黑屋| 蓝光电影网 |网站地图

Copyright © 2021 Comsenz Inc. Powered by 蓝光电影网

蓝光电影网

本站内容由用户自主分享和转载自互联网,转载目的在于传递更多信息,并不代表本网赞同其观点和对其真实性负责。

如有侵权、违反国家法律政策行为,请联系我们,我们会第一时间及时清除和处理!

举报反馈邮箱:[email protected]

快速回复 返回顶部 返回列表