找回密码

蓝光电影网

查看: 21|回复: 0

[动作] 凹头弹 Hollow.Point.2019.1080p.WEB-DL.DD5.1.H264-FGT 3.47GB

[复制链接]
蓝光币
511
发表于 2019-6-27 20:05:17 | 显示全部楼层 |阅读模式


◎译  名 凹头弹
◎片  名 Hollow Point
◎年  代 2019
◎产  地 美国
◎类  别 行动 / 犯罪
◎语  言 英语
◎IMDb评分  6.8/10 from 5 users
◎IMDb链接  http://www.imdb.com/title/tt8648640
◎豆瓣评分 0/10 from 0 users
◎豆瓣链接 https://movie.douban.com/subject/33218487/
◎导  演 Daniel Zirilli
◎编  剧 查德·洛 Chad Law / Evan Law / Daniel Zirilli
◎主  演 鲁克·高斯 Luke Goss
      陈钰芸 Juju Chan
      比尔·杜克 Bill Duke

◎简  介  
  When his wife and daughter are senselessly murdered a grieving man finds himself caught up in a war between a group of charismatic vigilantes and the crime that infests their city.
  1. Video
  2. ID                                       : 1
  3. Format                                   : AVC
  4. Format/Info                              : Advanced Video Codec
  5. Format profile                           : [email protected]
  6. Format settings                          : CABAC / 4 Ref Frames
  7. Format settings, CABAC                   : Yes
  8. Format settings, ReFrames                : 4 frames
  9. Codec ID                                 : V_MPEG4/ISO/AVC
  10. Duration                                 : 1 h 29 min
  11. Bit rate                                 : 5 146 kb/s
  12. Width                                    : 1 920 pixels
  13. Height                                   : 1 012 pixels
  14. Display aspect ratio                     : 1.897
  15. Frame rate mode                          : Constant
  16. Frame rate                               : 23.976 FPS
  17. Color space                              : YUV
  18. Chroma subsampling                       : 4:2:0
  19. Bit depth                                : 8 bits
  20. Scan type                                : Progressive
  21. Bits/(Pixel*Frame)                       : 0.110
  22. Stream size                              : 3.23 GiB (93%)
  23. Title                                    : Hollow.Point.2019.1080p.WEB-DL.DD5.1.H264-FGT
  24. Language                                 : English
  25. Default                                  : Yes
  26. Forced                                   : No
  27. Color range                              : Limited
  28. Color primaries                          : BT.709
  29. Transfer characteristics                 : BT.709
  30. Matrix coefficients                      : BT.709
  31. Audio
  32. ID                                       : 2
  33. Format                                   : AC-3
  34. Format/Info                              : Audio Coding 3
  35. Commercial name                          : Dolby Digital
  36. Codec ID                                 : A_AC3
  37. Duration                                 : 1 h 29 min
  38. Bit rate mode                            : Constant
  39. Bit rate                                 : 384 kb/s
  40. Channel(s)                               : 6 channels
  41. Channel layout                           : L R C LFE Ls Rs
  42. Sampling rate                            : 48.0 kHz
  43. Frame rate                               : 31.250 FPS (1536 SPF)
  44. Bit depth                                : 16 bits
  45. Compression mode                         : Lossy
  46. Stream size                              : 246 MiB (7%)
  47. Title                                    : Hollow.Point.2019.1080p.WEB-DL.DD5.1.H264-FGT
  48. Language                                 : English
  49. Service kind                             : Complete Main
  50. Default                                  : Yes
  51. Forced                                   : No
  52. Menu
  53. 00:00:00.000                             : en:1
  54. 00:07:14.476                             : en:2
  55. 00:15:10.076                             : en:3
  56. 00:22:38.441                             : en:4
  57. 00:30:45.885                             : en:5
  58. 00:37:59.068                             : en:6
  59. 00:47:03.278                             : en:7
  60. 00:55:08.595                             : en:8
  61. 01:02:24.446                             : en:9
  62. 01:09:39.130                             : en:10
  63. 01:17:16.169                             : en:11
  64. 01:22:20.931                             : en:12
复制代码






                                       
                                       

                                       
                                       
                                       




回复

使用道具 举报

懒得打字嘛,点击右侧快捷回复 【右侧内容,后台自定义】
您需要登录后才可以回帖 登录 | 立即加入

本版积分规则

Archiver|小黑屋| 蓝光电影网 |网站地图

Copyright © 2021 Comsenz Inc. Powered by 蓝光电影网

蓝光电影网

本站内容由用户自主分享和转载自互联网,转载目的在于传递更多信息,并不代表本网赞同其观点和对其真实性负责。

如有侵权、违反国家法律政策行为,请联系我们,我们会第一时间及时清除和处理!

举报反馈邮箱:[email protected]

快速回复 返回顶部 返回列表