找回密码

蓝光电影网

查看: 25|回复: 0

[爱情] 单身不快乐/摩登单身派 Modern.Persuasion.2020.1080p.WEB-DL.DD5.1.H264-FGT 3.39GB

[复制链接]
蓝光币
515
发表于 2020-12-18 15:29:08 | 显示全部楼层 |阅读模式
[img][/img]

◎译  名 单身不欢畅/漂亮单身派
◎片  名 Modern Persuasion
◎年  代 2020
◎产  地 美国
◎类  别 恋爱
◎语  言 英语
◎上映日期 
◎IMDb链接  https://www.imdb.com/title/tt2165922/
◎豆瓣评分 /10 from 0 users
◎豆瓣链接 https://movie.douban.com/subject/34918691/
◎导  演 乔纳森·利塞茨基 Jonathan Lisecki
◎编  剧 简·奥斯汀 Jane Austen / 乔纳森·利塞茨基 Jonathan Lisecki / 芭芭拉拉德基 Barbara Radecki
◎主  演 艾丽西亚·维特 Alicia Witt
       毕比·诺维尔什 Bebe Neuwirth
       丹妮艾拉·皮内达 Daniella Pineda
       莉萨·拉皮拉 Liza Lapira
       李丽君 Li Jun Li
       多米尼克·瑞恩斯 Dominic Rains
       马克·摩斯 Mark Moses
       肖恩·麦克雷 Shane McRae
       艾德丽安·C·摩尔 Adrienne C. Moore
       克里斯朵夫·奥谢 Christopher O'Shea
◎简  介


  A single woman focused on her career in New York is forced to deal with the aftermath of a failed relationship when an ex-boyfriend hires her company.
  1. Video
  2. ID                                       : 1
  3. Format                                   : AVC
  4. Format/Info                              : Advanced Video Codec
  5. Format profile                           : [email protected]
  6. Format settings                          : CABAC / 4 Ref Frames
  7. Format settings, CABAC                   : Yes
  8. Format settings, Reference frames        : 4 frames
  9. Format settings, GOP                     : N=1
  10. Codec ID                                 : V_MPEG4/ISO/AVC
  11. Duration                                 : 1 h 26 min
  12. Bit rate                                 : 5 196 kb/s
  13. Width                                    : 1 916 pixels
  14. Height                                   : 1 076 pixels
  15. Display aspect ratio                     : 16:9
  16. Frame rate mode                          : Constant
  17. Frame rate                               : 23.976 (24000/1001/189150) FPS
  18. Color space                              : YUV
  19. Chroma subsampling                       : 4:2:0
  20. Bit depth                                : 8 bits
  21. Scan type                                : Progressive
  22. Bits/(Pixel*Frame)                       : 0.105
  23. Stream size                              : 3.15 GiB (93%)
  24. Language                                 : English
  25. Default                                  : Yes
  26. Forced                                   : No
  27. Color range                              : Limited
  28. Color primaries                          : BT.709
  29. Transfer characteristics                 : BT.709
  30. Matrix coefficients                      : BT.709
  31. Audio
  32. ID                                       : 2
  33. Format                                   : AC-3
  34. Format/Info                              : Audio Coding 3
  35. Commercial name                          : Dolby Digital
  36. Codec ID                                 : A_AC3
  37. Duration                                 : 1 h 26 min
  38. Bit rate mode                            : Constant
  39. Bit rate                                 : 384 kb/s
  40. Channel(s)                               : 6 channels
  41. Channel layout                           : L R C LFE Ls Rs
  42. Sampling rate                            : 48.0 kHz
  43. Frame rate                               : 31.250 FPS (1536 SPF)
  44. Compression mode                         : Lossy
  45. Stream size                              : 239 MiB (7%)
  46. Title                                    : DD 5.1
  47. Language                                 : English
  48. Service kind                             : Complete Main
  49. Default                                  : Yes
  50. Forced                                   : No
  51. Text
  52. ID                                       : 3
  53. Format                                   : UTF-8
  54. Codec ID                                 : S_TEXT/UTF8
  55. Codec ID/Info                            : UTF-8 Plain Text
  56. Duration                                 : 1 h 20 min
  57. Bit rate                                 : 97 b/s
  58. Count of elements                        : 1744
  59. Stream size                              : 57.7 KiB (0%)
  60. Language                                 : English
  61. Default                                  : Yes
  62. Forced                                   : No
复制代码



                                       
                                       

                                       
                                       
                                       




回复

使用道具 举报

懒得打字嘛,点击右侧快捷回复 【右侧内容,后台自定义】
您需要登录后才可以回帖 登录 | 立即加入

本版积分规则

Archiver|小黑屋| 蓝光电影网 |网站地图

Copyright © 2021 Comsenz Inc. Powered by 蓝光电影网

蓝光电影网

本站内容由用户自主分享和转载自互联网,转载目的在于传递更多信息,并不代表本网赞同其观点和对其真实性负责。

如有侵权、违反国家法律政策行为,请联系我们,我们会第一时间及时清除和处理!

举报反馈邮箱:[email protected]

快速回复 返回顶部 返回列表