找回密码

蓝光电影网

查看: 11|回复: 0

[爱情] 最幸福的季节/挛爱季节 Happiest.Season.2020.1080p.AMZN.WEBRip.DDP5.1.x264-NTb 5.36GB

[复制链接]
蓝光币
515
发表于 2020-12-16 20:08:53 | 显示全部楼层 |阅读模式
[img][/img]

◎译  名 最幸运的季节/挛爱季节(港)/求婚美意外(台)
◎片  名 Happiest Season
◎年  代 2020
◎产  地 加拿大,美国
◎类  别 恋爱 / 同性
◎语  言 英语
◎上映日期 2020-11-25(美国收集)
◎IMDb评分  6.7/10 from 15665 users
◎IMDb链接  https://www.imdb.com/title/tt8522006/
◎豆瓣评分 7.2/10 from 9709 users
◎豆瓣链接 https://movie.douban.com/subject/30389671/
◎片  长 101分钟
◎导  演 克里·杜瓦尔 Clea DuVall
◎编  剧 克里·杜瓦尔 Clea DuVall / 玛丽·霍兰 Mary Holland
◎主  演 克里斯汀·斯图尔特 Kristen Stewart
       麦肯兹·戴维斯 Mackenzie Davis
       玛丽·斯汀伯根 Mary Steenburgen
       维克多·加博 Victor Garber
       爱丽森·布里 Alison Brie
       玛丽·霍兰 Mary Holland
       丹·莱维 Dan Levy
       奥布瑞·普拉扎 Aubrey Plaza
       莎拉尤·拉奧 Sarayu Blue
       杰克·麦克道曼 Jake McDorman
       安娜·盖斯泰尔 Ana Gasteyer
       珍妮·加利 Jenny Gulley
       蜜雪儿·伯托 Michelle Buteau
       卡拉·盖洛 Carla Gallo
       蒂莫西·西蒙斯 Timothy Simons
       劳伦·拉普库斯 Lauren Lapkus
       肖恩·迈克尔·韦伯 Sean Michael Weber
       戴恩·卡恩 Daryn Kahn
       克里斯托弗·乔恩·贡博什 Christopher Jon Gombos
       威廉·卡尼亚 William Kania
◎标  签 克里斯汀·斯图尔特 | 同性 | LGBT | 美国 | 2020 | les | Lesbian | 麦肯兹·戴维斯
◎简  介


  报告一个年轻女子预备在家庭一年一度的沐日集会上向女友求婚,成果发现女友还未向守旧的怙恃出柜。
  1. Video
  2. ID                                       : 1
  3. Format                                   : AVC
  4. Format/Info                              : Advanced Video Codec
  5. Format profile                           : [email protected]
  6. Format settings                          : CABAC / 4 Ref Frames
  7. Format settings, CABAC                   : Yes
  8. Format settings, Reference frames        : 4 frames
  9. Codec ID                                 : V_MPEG4/ISO/AVC
  10. Duration                                 : 1 h 41 min
  11. Bit rate mode                            : Constant
  12. Bit rate                                 : 6 900 kb/s
  13. Nominal bit rate                         : 10 000 kb/s
  14. Width                                    : 1 920 pixels
  15. Height                                   : 800 pixels
  16. Display aspect ratio                     : 2.40:1
  17. Frame rate mode                          : Constant
  18. Frame rate                               : 23.976 (24000/1001/189150) FPS
  19. Color space                              : YUV
  20. Chroma subsampling                       : 4:2:0
  21. Bit depth                                : 8 bits
  22. Scan type                                : Progressive
  23. Bits/(Pixel*Frame)                       : 0.187
  24. Stream size                              : 4.90 GiB (91%)
  25. Default                                  : Yes
  26. Forced                                   : No
  27. Color range                              : Limited
  28. Color primaries                          : BT.709
  29. Transfer characteristics                 : BT.709
  30. Matrix coefficients                      : BT.709
  31. Audio
  32. ID                                       : 2
  33. Format                                   : E-AC-3
  34. Format/Info                              : Enhanced AC-3
  35. Commercial name                          : Dolby Digital Plus
  36. Codec ID                                 : A_EAC3
  37. Duration                                 : 1 h 41 min
  38. Bit rate mode                            : Constant
  39. Bit rate                                 : 640 kb/s
  40. Channel(s)                               : 6 channels
  41. Channel layout                           : L R C LFE Ls Rs
  42. Sampling rate                            : 48.0 kHz
  43. Frame rate                               : 31.250 FPS (1536 SPF)
  44. Compression mode                         : Lossy
  45. Stream size                              : 466 MiB (8%)
  46. Language                                 : English
  47. Service kind                             : Complete Main
  48. Default                                  : Yes
  49. Forced                                   : No
  50. Text #1
  51. ID                                       : 3
  52. Format                                   : UTF-8
  53. Codec ID                                 : S_TEXT/UTF8
  54. Codec ID/Info                            : UTF-8 Plain Text
  55. Duration                                 : 1 h 39 min
  56. Bit rate                                 : 87 b/s
  57. Count of elements                        : 2255
  58. Stream size                              : 64.2 KiB (0%)
  59. Title                                    : SDH
  60. Language                                 : English
  61. Default                                  : No
  62. Forced                                   : No
  63. Text #2
  64. ID                                       : 4
  65. Format                                   : UTF-8
  66. Codec ID                                 : S_TEXT/UTF8
  67. Codec ID/Info                            : UTF-8 Plain Text
  68. Duration                                 : 1 h 36 min
  69. Bit rate                                 : 99 b/s
  70. Count of elements                        : 1931
  71. Stream size                              : 70.5 KiB (0%)
  72. Title                                    : SDH
  73. Language                                 : French
  74. Default                                  : No
  75. Forced                                   : No
  76. Menu
  77. 00:00:00.000                             : en:Studio Logo
  78. 00:00:45.000                             : en:Opening Credits
  79. 00:02:08.000                             : en:Scene 3
  80. 00:05:33.000                             : en:Scene 4
  81. 00:06:21.000                             : en:Title Sequence
  82. 00:06:26.000                             : en:Scene 6
  83. 00:09:15.000                             : en:Scene 7
  84. 00:10:16.000                             : en:Scene 8
  85. 00:13:14.000                             : en:Scene 9
  86. 00:17:58.000                             : en:Scene 10
  87. 00:21:54.000                             : en:Scene 11
  88. 00:24:54.000                             : en:Scene 12
  89. 00:29:25.000                             : en:Scene 13
  90. 00:33:42.000                             : en:Scene 14
  91. 00:34:37.000                             : en:Scene 15
  92. 00:37:37.000                             : en:Scene 16
  93. 00:41:09.000                             : en:Scene 17
  94. 00:45:31.000                             : en:Scene 18
  95. 00:49:59.000                             : en:Scene 19
  96. 00:52:36.000                             : en:Scene 20
  97. 00:57:09.000                             : en:Scene 21
  98. 01:00:17.000                             : en:Scene 22
  99. 01:04:21.000                             : en:Scene 23
  100. 01:08:07.000                             : en:Scene 24
  101. 01:12:19.000                             : en:Scene 25
  102. 01:19:06.000                             : en:Scene 26
  103. 01:26:55.000                             : en:Scene 27
  104. 01:29:32.000                             : en:Scene 28
  105. 01:31:54.000                             : en:Scene 29
  106. 01:35:32.000                             : en:End Credits
  107. 01:35:36.000                             : en:Scene 31
  108. 01:37:19.000                             : en:End Credits
复制代码



                                       
                                       

                                       
                                       
                                       




回复

使用道具 举报

懒得打字嘛,点击右侧快捷回复 【右侧内容,后台自定义】
您需要登录后才可以回帖 登录 | 立即加入

本版积分规则

Archiver|小黑屋| 蓝光电影网 |网站地图

Copyright © 2021 Comsenz Inc. Powered by 蓝光电影网

蓝光电影网

本站内容由用户自主分享和转载自互联网,转载目的在于传递更多信息,并不代表本网赞同其观点和对其真实性负责。

如有侵权、违反国家法律政策行为,请联系我们,我们会第一时间及时清除和处理!

举报反馈邮箱:[email protected]

快速回复 返回顶部 返回列表