找回密码

蓝光电影网

查看: 43|回复: 0

[爱情] 当男人恋爱时 Man.in.Love.2014.KOREAN.1080p.NF.WEBRip.DDP5.1.x264-ARiN 3.32GB

[复制链接]
蓝光币
515
发表于 2020-11-30 21:15:09 | 显示全部楼层 |阅读模式


◎译  名 当汉子恋爱时/Man in Love/When a Man Loves a Woman/不标准情人(台)
◎片  名 ??? ??? ?
◎年  代 2014
◎产  地 韩国
◎类  别 恋爱
◎语  言 韩语
◎上映日期 2014-01-22(韩国)
◎IMDb评分  6.9/10 from 526 users
◎IMDb链接  https://www.imdb.com/title/tt3479250/
◎豆瓣评分 7.9/10 from 27605 users
◎豆瓣链接 https://movie.douban.com/subject/23712401/
◎片  长 120分钟
◎导  演 韩东旭 Dong-Wook Han
◎编  剧 Kab-yeol Yu / 韩东旭 Dong-Wook Han / 朴世上 Noo-ri Park
◎主  演 黄政民 Jeong-min Hwang
       韩惠珍 Hye-jin Han
       郑满植 Man-shik Jeong
       金秉玉 Byeong-ok Kim
       郭度沅 Do-Won Kwak
       金正洙 Kim Jeong-soo
       金弘波 Hong-Fa Kim
       姜敏儿 Min-Ah Kang
       孙炳旭 Son Byeong-wook
       金钟秀 Jong-soo Kim
       郑熙泰 Hee-tae Jung
       韩东旭 Dong-Wook Han
       朴圣雄 Seong-Woong Park
       孙世彬 Sebin Son
◎标  签 恋爱 | 黄政民 | 韩国 | 韩国电影 | 温情 | 还算不错的一部虐心电影 | 动人 | 韩惠珍
◎简  介


  太逸(黄政民 饰)是一位帮高利贷索债的小混混,人到中年的他不但没有份端庄的工作,甚至连个住的地方都没有,寄宿在开美发店的哥哥英逸(郭道元 饰)家。太逸有着自己的人生哲学,那就是借进来的钱一定得要返来。大大咧咧的他完全不晓得若何尊重女性,亦和浪漫的恋爱故事无缘。
  
  某日,在去索债的途中,太逸相逢了名为周皓婷(韩惠珍 饰)的美丽女子,那一瞬间,太逸晓得了什么叫一见钟情。但是,太逸并不能赐与周皓婷她所想要的生活,第一次,太逸决议为了自己之外的人做出改变。但是,面临两人之间庞大的悬殊,太逸可以对峙他的豪情吗?与此同时,持续不断发生的意外亦让太逸的生活堕入了麻烦当中。
  1. Video
  2. ID                                       : 1
  3. Format                                   : AVC
  4. Format/Info                              : Advanced Video Codec
  5. Format profile                           : [email protected]
  6. Format settings                          : CABAC / 3 Ref Frames
  7. Format settings, CABAC                   : Yes
  8. Format settings, Reference frames        : 3 frames
  9. Codec ID                                 : V_MPEG4/ISO/AVC
  10. Duration                                 : 1 h 59 min
  11. Bit rate mode                            : Variable
  12. Bit rate                                 : 3 320 kb/s
  13. Maximum bit rate                         : 4 980 kb/s
  14. Width                                    : 1 920 pixels
  15. Height                                   : 1 080 pixels
  16. Display aspect ratio                     : 16:9
  17. Frame rate mode                          : Constant
  18. Frame rate                               : 24.000 FPS
  19. Color space                              : YUV
  20. Chroma subsampling                       : 4:2:0
  21. Bit depth                                : 8 bits
  22. Scan type                                : Progressive
  23. Bits/(Pixel*Frame)                       : 0.067
  24. Stream size                              : 2.78 GiB (84%)
  25. Writing library                          : x264 core 148 r2715 7e75228
  26. Encoding settings                        : cabac=1 / ref=3 / deblock=1:0:0 / analyse=0x1:0x111 / me=umh / subme=10 / psy=1 / psy_rd=1.00:0.00 / mixed_ref=1 / me_range=24 / chroma_me=1 / trellis=2 / 8x8dct=0 / cqm=0 / deadzone=21,11 / fast_pskip=1 / chroma_qp_offset=-2 / threads=8 / lookahead_threads=1 / sliced_threads=0 / nr=0 / decimate=1 / interlaced=0 / bluray_compat=0 / stitchable=1 / constrained_intra=0 / bframes=2 / b_pyramid=0 / b_adapt=2 / b_bias=0 / direct=3 / weightb=1 / open_gop=0 / weightp=2 / keyint=48 / keyint_min=25 / scenecut=0 / intra_refresh=0 / rc_lookahead=48 / rc=2pass / mbtree=1 / bitrate=3320 / ratetol=1.0 / qcomp=0.50 / qpmin=6 / qpmax=51 / qpstep=4 / cplxblur=20.0 / qblur=0.5 / vbv_maxrate=4980 / vbv_bufsize=6640 / nal_hrd=vbr / filler=0 / ip_ratio=1.40 / aq=1:1.00
  27. Default                                  : Yes
  28. Forced                                   : No
  29. Audio
  30. ID                                       : 2
  31. Format                                   : E-AC-3
  32. Format/Info                              : Enhanced AC-3
  33. Commercial name                          : Dolby Digital Plus
  34. Codec ID                                 : A_EAC3
  35. Duration                                 : 1 h 59 min
  36. Bit rate mode                            : Constant
  37. Bit rate                                 : 640 kb/s
  38. Channel(s)                               : 6 channels
  39. Channel layout                           : L R C LFE Ls Rs
  40. Sampling rate                            : 48.0 kHz
  41. Frame rate                               : 31.250 FPS (1536 SPF)
  42. Compression mode                         : Lossy
  43. Stream size                              : 549 MiB (16%)
  44. Language                                 : Korean
  45. Service kind                             : Complete Main
  46. Default                                  : Yes
  47. Forced                                   : No
  48. Text #1
  49. ID                                       : 3
  50. Format                                   : UTF-8
  51. Codec ID                                 : S_TEXT/UTF8
  52. Codec ID/Info                            : UTF-8 Plain Text
  53. Duration                                 : 1 h 53 min
  54. Bit rate                                 : 32 b/s
  55. Count of elements                        : 1119
  56. Stream size                              : 27.0 KiB (0%)
  57. Language                                 : English
  58. Default                                  : No
  59. Forced                                   : No
  60. Text #2
  61. ID                                       : 4
  62. Format                                   : UTF-8
  63. Codec ID                                 : S_TEXT/UTF8
  64. Codec ID/Info                            : UTF-8 Plain Text
  65. Duration                                 : 1 h 57 min
  66. Bit rate                                 : 61 b/s
  67. Count of elements                        : 1626
  68. Stream size                              : 53.1 KiB (0%)
  69. Language                                 : Korean
  70. Default                                  : No
  71. Forced                                   : No
复制代码






                                       
                                       

                                       
                                       
                                       




回复

使用道具 举报

懒得打字嘛,点击右侧快捷回复 【右侧内容,后台自定义】
您需要登录后才可以回帖 登录 | 立即加入

本版积分规则

Archiver|小黑屋| 蓝光电影网 |网站地图

Copyright © 2021 Comsenz Inc. Powered by 蓝光电影网

蓝光电影网

本站内容由用户自主分享和转载自互联网,转载目的在于传递更多信息,并不代表本网赞同其观点和对其真实性负责。

如有侵权、违反国家法律政策行为,请联系我们,我们会第一时间及时清除和处理!

举报反馈邮箱:[email protected]

快速回复 返回顶部 返回列表