找回密码

蓝光电影网

查看: 6|回复: 0

[恐怖] 随机暴力行动 Random.Acts.of.Violence.2019.1080p.BluRay.x264.DTS-MT 9.74GB

[复制链接]
蓝光币
382
发表于 2021-2-21 14:22:10 | 显示全部楼层 |阅读模式


◎译  名 随机暴力行动
◎片  名 Random Acts of Violence
◎年  代 2019
◎产  地 美国
◎类  别 可骇
◎语  言 英语
◎上映日期 2019-09-19(奥斯汀奇异电影节) / 2020-07-31(加拿大收集) / 2020-08-20(美国收集)
◎IMDb评分  5.2/10 from 1438 users
◎IMDb链接  https://www.imdb.com/title/tt1925493/
◎豆瓣评分 5.0/10 from 201 users
◎豆瓣链接 https://movie.douban.com/subject/30301467/
◎片  长 80分钟
◎导  演 杰伊·巴鲁切尔 Jay Baruchel
◎编  剧 杰伊·巴鲁切尔 Jay Baruchel / 吉米?帕尔默蒂 Jimmy Palmiotti
◎主  演 杰伊·巴鲁切尔 Jay Baruchel
       杰西·威廉姆斯 Jesse Williams
       乔丹娜·布鲁斯特 Jordana Brewster
       妮娅姆·威尔逊 Niamh Wilson
◎标  签 血腥 | 可骇 | 2020 | 美国 | 犯罪 | 重口 | 美国电影 | 犯罪惊悚
◎简  介


  杰西·威廉姆斯、乔丹娜·布鲁斯特加盟,杰伊·巴鲁切尔自导自演新片[随机暴力行动](Random Acts Of Violence,暂译)。本片按照同名漫画小说改编,将围绕漫画作者托德(威廉姆饰)、他的女友(布鲁斯特饰)、他的助理(妮娅姆·威尔逊饰)、他的好朋友(巴鲁切尔饰)展开。在从多伦多到纽约加入动漫展的路上,人们起头像托德漫画中的方式被杀戮。很明显,是有一个狂热粉丝在搞事......本片正在拍摄,将延续到9月。
  1. Video
  2. ID                                       : 1
  3. Format                                   : AVC
  4. Format/Info                              : Advanced Video Codec
  5. Format profile                           : [email protected]
  6. Format settings                          : CABAC / 5 Ref Frames
  7. Format settings, CABAC                   : Yes
  8. Format settings, Reference frames        : 5 frames
  9. Codec ID                                 : V_MPEG4/ISO/AVC
  10. Duration                                 : 1 h 20 min
  11. Bit rate                                 : 15.7 Mb/s
  12. Width                                    : 1 920 pixels
  13. Height                                   : 808 pixels
  14. Display aspect ratio                     : 2.40:1
  15. Frame rate mode                          : Constant
  16. Frame rate                               : 23.976 (24000/1001/189150) FPS
  17. Color space                              : YUV
  18. Chroma subsampling                       : 4:2:0
  19. Bit depth                                : 8 bits
  20. Scan type                                : Progressive
  21. Bits/(Pixel*Frame)                       : 0.422
  22. Stream size                              : 8.89 GiB (91%)
  23. Writing library                          : x264 core 157 r2938 2b00a84 [email protected] Mod
  24. Encoding settings                        : cabac=1 / ref=5 / deblock=1:-3:-3 / analyse=0x3:0x133 / me=umh / subme=10 / psy=1 / psy_rd=1.05:0.00 / mixed_ref=1 / me_range=32 / chroma_me=1 / trellis=2 / 8x8dct=1 / cqm=0 / deadzone=21,11 / fast_pskip=0 / chroma_qp_offset=-2 / threads=12 / lookahead_threads=2 / sliced_threads=0 / nr=0 / decimate=0 / interlaced=0 / bluray_compat=0 / constrained_intra=0 / bframes=8 / b_pyramid=2 / b_adapt=2 / b_bias=0 / direct=3 / weightb=1 / open_gop=0 / weightp=2 / keyint=250 / keyint_min=24 / scenecut=40 / intra_refresh=0 / rc_lookahead=250 / rc=crf / mbtree=0 / crf=16.8 / qcomp=0.60 / qpmin=0 / qpmax=69 / qpstep=4 / vbv_maxrate=62500 / vbv_bufsize=78125 / crf_max=0.0 / nal_hrd=none / filler=0 / ip_ratio=1.30 / pb_ratio=1.20 / aq=3:0.80
  25. Language                                 : English
  26. Default                                  : Yes
  27. Forced                                   : No
  28. Color range                              : Limited
  29. Color primaries                          : BT.709
  30. Matrix coefficients                      : BT.709
  31. Audio
  32. ID                                       : 2
  33. Format                                   : DTS
  34. Format/Info                              : Digital Theater Systems
  35. Codec ID                                 : A_DTS
  36. Duration                                 : 1 h 20 min
  37. Bit rate mode                            : Constant
  38. Bit rate                                 : 1 509 kb/s
  39. Channel(s)                               : 6 channels
  40. Channel layout                           : C L R Ls Rs LFE
  41. Sampling rate                            : 48.0 kHz
  42. Frame rate                               : 93.750 FPS (512 SPF)
  43. Bit depth                                : 16 bits
  44. Compression mode                         : Lossy
  45. Stream size                              : 874 MiB (9%)
  46. Language                                 : English
  47. Default                                  : Yes
  48. Forced                                   : No
  49. Text
  50. ID                                       : 3
  51. Format                                   : UTF-8
  52. Codec ID                                 : S_TEXT/UTF8
  53. Codec ID/Info                            : UTF-8 Plain Text
  54. Duration                                 : 1 h 15 min
  55. Bit rate                                 : 67 b/s
  56. Count of elements                        : 1235
  57. Stream size                              : 37.5 KiB (0%)
  58. Title                                    : SRT
  59. Language                                 : English
  60. Default                                  : Yes
  61. Forced                                   : No
  62. Menu
  63. 00:00:00.000                             : en:Chapter 01
  64. 00:09:17.265                             : en:Chapter 02
  65. 00:18:50.379                             : en:Chapter 03
  66. 00:27:17.511                             : en:Chapter 04
  67. 00:36:37.278                             : en:Chapter 05
  68. 00:44:20.449                             : en:Chapter 06
  69. 00:54:42.613                             : en:Chapter 07
  70. 01:01:09.374                             : en:Chapter 08
  71. 01:13:43.044                             : en:Chapter 09
复制代码




                                       
                                       

                                       
                                       
                                       




回复

使用道具 举报

懒得打字嘛,点击右侧快捷回复 【右侧内容,后台自定义】
您需要登录后才可以回帖 登录 | 立即加入

本版积分规则

Archiver|小黑屋| 蓝光电影网 |网站地图

Copyright © 2021 Comsenz Inc. Powered by 蓝光电影网

蓝光电影网

本站内容由用户自主分享和转载自互联网,转载目的在于传递更多信息,并不代表本网赞同其观点和对其真实性负责。

如有侵权、违反国家法律政策行为,请联系我们,我们会第一时间及时清除和处理!

举报反馈邮箱:[email protected]

快速回复 返回顶部 返回列表