找回密码

蓝光电影网

查看: 7|回复: 0

[喜剧] 老人交响乐团/不老交响梦 Golden.Orchestra.2016.720p.BluRay.x264-REGRET 4.38GB

[复制链接]
蓝光币
382
发表于 2019-8-15 13:39:08 | 显示全部楼层 |阅读模式


◎译  名 老人交响乐团 / 不老交响梦 / 黄金爱乐乐团(港)
◎片  名 オケ老人!
◎年  代 2016
◎产  地 日本
◎类  别 笑剧 / 音乐
◎语  言 日语
◎上映日期 2016-11-11(日本)
◎IMDb评分  6.8/10 from 61 users
◎IMDb链接  http://www.imdb.com/title/tt5101956
◎豆瓣评分 7.3/10 from 984 users
◎豆瓣链接 https://movie.douban.com/subject/26637868/
◎片  长 119分钟
◎导  演 细川彻 T?ru Hosokawa
◎编  剧 细川彻 T?ru Hosokawa / 荒木源 Gen Araki
◎主  演 杏 Anne
       黑岛结菜 Yuina Kuroshima
       坂口健太郎 Kentaro Sakaguchi
       笹野高史 Takashi Sasano
       左顿平 Tonpei Hidari
       小松政夫 Masao Komatsu
       藤田弓子 Yumiko Fujita
       石仓三郎 Sabur? Ishikura
       茅岛成美 Narumi Kayashima
       喜多道枝 Michie Kita
       森下能幸 Yoshiyuki Morishita
       萩原利久 Riku Hagiwara
       光石研 Ken Mitsuishi

◎标  签 日本 | 笑剧 | 音乐 | 励志 | 2016 | 剧情 | 古典乐 | 亲情
◎简  介  
  该片改编自荒木源所著同名小说,报告了以酷爱古典音乐的年轻高中教员加入了一个满是老年人的专业交响乐团,在乐团中她不但将应战小提琴的演奏,还在情势突变的情况下拿起批示棒,成为了乐团批示的故事。
  1. Video
  2. ID                                       : 1
  3. Format                                   : AVC
  4. Format/Info                              : Advanced Video Codec
  5. Format profile                           : [email protected]
  6. Format settings                          : CABAC / 5 Ref Frames
  7. Format settings, CABAC                   : Yes
  8. Format settings, Reference frames        : 5 frames
  9. Codec ID                                 : V_MPEG4/ISO/AVC
  10. Duration                                 : 2 h 0 min
  11. Bit rate                                 : 4 572 kb/s
  12. Width                                    : 1 280 pixels
  13. Height                                   : 688 pixels
  14. Display aspect ratio                     : 1.85:1
  15. Frame rate mode                          : Constant
  16. Frame rate                               : 23.976 (24000/1001) FPS
  17. Color space                              : YUV
  18. Chroma subsampling                       : 4:2:0
  19. Bit depth                                : 8 bits
  20. Scan type                                : Progressive
  21. Bits/(Pixel*Frame)                       : 0.217
  22. Stream size                              : 3.83 GiB (88%)
  23. Writing library                          : x264 core 157 r2970 5493be8
  24. Encoding settings                        : cabac=1 / ref=5 / deblock=1:-3:-3 / analyse=0x3:0x133 / me=umh / subme=9 / psy=1 / psy_rd=1.00:0.00 / mixed_ref=1 / me_range=16 / chroma_me=1 / trellis=2 / 8x8dct=1 / cqm=0 / deadzone=21,11 / fast_pskip=0 / chroma_qp_offset=-2 / threads=21 / lookahead_threads=1 / sliced_threads=0 / nr=0 / decimate=1 / interlaced=0 / bluray_compat=0 / constrained_intra=0 / bframes=3 / b_pyramid=2 / b_adapt=1 / b_bias=0 / direct=3 / weightb=1 / open_gop=0 / weightp=2 / keyint=240 / keyint_min=24 / scenecut=40 / intra_refresh=0 / rc_lookahead=50 / rc=2pass / mbtree=1 / bitrate=4572 / ratetol=1.0 / qcomp=0.60 / qpmin=0 / qpmax=69 / qpstep=4 / cplxblur=20.0 / qblur=0.5 / ip_ratio=1.40 / aq=1:1.00
  25. Language                                 : English
  26. Default                                  : Yes
  27. Forced                                   : No

  28. Audio
  29. ID                                       : 2
  30. Format                                   : AC-3
  31. Format/Info                              : Audio Coding 3
  32. Commercial name                          : Dolby Digital
  33. Codec ID                                 : A_AC3
  34. Duration                                 : 2 h 0 min
  35. Bit rate mode                            : Constant
  36. Bit rate                                 : 640 kb/s
  37. Channel(s)                               : 6 channels
  38. Channel layout                           : L R C LFE Ls Rs
  39. Sampling rate                            : 48.0 kHz
  40. Frame rate                               : 31.250 FPS (1536 SPF)
  41. Bit depth                                : 16 bits
  42. Compression mode                         : Lossy
  43. Stream size                              : 549 MiB (12%)
  44. Language                                 : Japanese
  45. Service kind                             : Complete Main
  46. Default                                  : Yes
  47. Forced                                   : No

  48. Text
  49. ID                                       : 3
  50. Format                                   : UTF-8
  51. Codec ID                                 : S_TEXT/UTF8
  52. Codec ID/Info                            : UTF-8 Plain Text
  53. Duration                                 : 1 h 54 min
  54. Bit rate                                 : 36 b/s
  55. Count of elements                        : 1175
  56. Stream size                              : 30.2 KiB (0%)
  57. Title                                    : English
  58. Language                                 : English
  59. Default                                  : Yes
  60. Forced                                   : Yes

  61. Menu
  62. 00:00:00.000                             : en:00:00:00.000
  63. 00:08:27.215                             : en:00:08:27.215
  64. 00:14:03.551                             : en:00:14:03.551
  65. 00:18:12.800                             : en:00:18:12.800
  66. 00:24:18.707                             : en:00:24:18.707
  67. 00:32:41.209                             : en:00:32:41.209
  68. 00:39:04.259                             : en:00:39:04.259
  69. 00:48:29.240                             : en:00:48:29.240
  70. 00:53:10.771                             : en:00:53:10.771
  71. 00:56:44.192                             : en:00:56:44.192
  72. 01:00:01.431                             : en:01:00:01.431
  73. 01:04:41.002                             : en:01:04:41.002
  74. 01:08:15.341                             : en:01:08:15.341
  75. 01:17:01.075                             : en:01:17:01.075
  76. 01:23:29.713                             : en:01:23:29.713
  77. 01:29:11.555                             : en:01:29:11.555
  78. 01:32:28.251                             : en:01:32:28.251
  79. 01:39:36.262                             : en:01:39:36.262
  80. 01:46:16.829                             : en:01:46:16.829
  81. 01:54:12.846                             : en:01:54:12.846
复制代码




                                       
                                       

                                       
                                       
                                       




回复

使用道具 举报

懒得打字嘛,点击右侧快捷回复 【右侧内容,后台自定义】
您需要登录后才可以回帖 登录 | 立即加入

本版积分规则

Archiver|小黑屋| 蓝光电影网 |网站地图

Copyright © 2021 Comsenz Inc. Powered by 蓝光电影网

蓝光电影网

本站内容由用户自主分享和转载自互联网,转载目的在于传递更多信息,并不代表本网赞同其观点和对其真实性负责。

如有侵权、违反国家法律政策行为,请联系我们,我们会第一时间及时清除和处理!

举报反馈邮箱:[email protected]

快速回复 返回顶部 返回列表