找回密码

蓝光电影网

查看: 11|回复: 0

[爱情] 迷魂记 Vertigo.1958.1080p.BluRay.X264-AMIABLE 9.84GB

[复制链接]
蓝光币
382
发表于 2020-10-28 08:56:45 | 显示全部楼层 |阅读模式


◎译  名 迷魂记/Alfred Hitchcock's Vertigo/眩晕
◎片  名 Vertigo
◎年  代 1958
◎产  地 美国
◎类  别 恋爱 / 悬疑 / 惊悚
◎语  言 英语
◎上映日期 1958-05-09(美国)
◎IMDb评分  8.3/10 from 356979 users
◎IMDb链接  https://www.imdb.com/title/tt0052357/
◎豆瓣评分 8.6/10 from 80448 users
◎豆瓣链接 https://movie.douban.com/subject/1297294/
◎片  长 128 分钟
◎导  演 阿尔弗雷德·希区柯克 Alfred Hitchcock
◎编  剧 亚历克·科佩尔 Alec Coppel / 萨缪尔·A·泰勒 Samuel A. Taylor / 皮埃尔·布瓦洛 Pierre Boileau / 托马·纳西雅克 Thomas Narcejac / 马克斯韦尔·安德森 Maxwell Anderson
◎主  演 詹姆斯·斯图尔特 James Stewart
       金·诺瓦克 Kim Novak
       芭芭拉·贝尔·戈迪斯 Barbara Bel Geddes
       汤姆·赫尔莫 Tom Helmore
       亨瑞·琼斯 Henry Jones
       雷蒙德贝利 Raymond Bailey
       埃伦·科比 Ellen Corby
       康斯坦丁肖恩 Konstantin Shayne
       李·帕特里克 Lee Patrick
       丹尼·鲍沙其 Danny Borzage
       保罗·布亚尔 Paul Bryar
       贝丝·弗劳尔斯 Bess Flowers
       弗莱德·格兰姆 Fred Graham
       阿尔弗雷德·希区柯克 Alfred Hitchcock
       Nina Shipman
       Steve Conte
       杰弗里·塞尔 Jeffrey Sayre
       John Benson
       Buck Harrington
       James W. Horan
       Art Howard
       June Jocelyn
       Perk Lazelle
       Lyle Moraine
       Forbes Murray
       Julian Petruzzi
       Ezelle Poule
       Sara Taft
       Joe Garcio
       Molly Dodd
       Isabel Analla
       Margaret Brayton
       Boyd Cabeen
       Jean Corbett
◎标  签 希区柯克 | 悬疑 | 美国 | 惊悚 | 典范 | AlfredHitchcock | 1958 | 美国电影
◎简  介


  退役警探约翰·弗格森(詹姆斯·斯图尔特 James Stewart 饰)的同学加文·埃尔斯特(汤姆·赫尔莫 Tom Helmore 饰)是造船商。他请求约翰跟踪自己的妻子,并称妻子经常被鬼魂附身。随后,约翰依照加文的指示,在厄尼餐厅见到了一位美丽的女人(金姆·诺瓦克 Kim Novak 饰)。经过跟踪,约翰发现女人确有分歧平常的行为:开车出门,去花店买花,去墓园在卡洛塔·巴尔德斯的碑前立足,去荣勋宫博物馆注视卡洛塔画像,最落后入麦基屈克旅店并出现在二楼的一扇窗前。约翰随即进入旅店观察,发现女人挂号名为卡洛塔·巴尔德斯,但其房中无人。卡洛塔·巴尔德斯究竟是何方崇高,鬼魂真的能附身活人吗?
◎获奖情况
  第31届奥斯卡金像奖 ?(1959)
  最好声响(提名) GeorgeDutton
  最好艺术指导和布景(提名) 萨姆·库默?/?弗兰克·R·麦克凯尔威?/?亨利·巴姆斯泰德?/?哈尔·佩雷拉
  1. Video
  2. ID                                       : 1
  3. Format                                   : AVC
  4. Format/Info                              : Advanced Video Codec
  5. Format profile                           : [email protected]
  6. Format settings                          : CABAC / 4 Ref Frames
  7. Format settings, CABAC                   : Yes
  8. Format settings, Reference frames        : 4 frames
  9. Codec ID                                 : V_MPEG4/ISO/AVC
  10. Duration                                 : 2 h 8 min
  11. Bit rate                                 : 9 455 kb/s
  12. Width                                    : 1 920 pixels
  13. Height                                   : 1 040 pixels
  14. Display aspect ratio                     : 1.85:1
  15. Frame rate mode                          : Constant
  16. Frame rate                               : 23.976 (24000/1001/189150) FPS
  17. Color space                              : YUV
  18. Chroma subsampling                       : 4:2:0
  19. Bit depth                                : 8 bits
  20. Scan type                                : Progressive
  21. Bits/(Pixel*Frame)                       : 0.197
  22. Stream size                              : 8.29 GiB (84%)
  23. Writing library                          : x264 core 128 r2216 198a7ea
  24. Encoding settings                        : cabac=1 / ref=4 / deblock=1:0:0 / analyse=0x3:0x113 / me=umh / subme=8 / psy=1 / psy_rd=1.00:0.00 / mixed_ref=1 / me_range=16 / chroma_me=1 / trellis=1 / 8x8dct=1 / cqm=0 / deadzone=21,11 / fast_pskip=1 / chroma_qp_offset=-2 / threads=12 / lookahead_threads=2 / sliced_threads=0 / nr=0 / decimate=1 / interlaced=0 / bluray_compat=0 / constrained_intra=0 / bframes=3 / b_pyramid=2 / b_adapt=2 / b_bias=0 / direct=3 / weightb=1 / open_gop=0 / weightp=2 / keyint=240 / keyint_min=24 / scenecut=40 / intra_refresh=0 / rc_lookahead=50 / rc=2pass / mbtree=1 / bitrate=9455 / ratetol=1.0 / qcomp=0.60 / qpmin=0 / qpmax=69 / qpstep=4 / cplxblur=20.0 / qblur=0.5 / ip_ratio=1.40 / aq=1:1.00
  25. Language                                 : English
  26. Default                                  : Yes
  27. Forced                                   : No

  28. Audio
  29. ID                                       : 2
  30. Format                                   : DTS
  31. Format/Info                              : Digital Theater Systems
  32. Codec ID                                 : A_DTS
  33. Duration                                 : 2 h 8 min
  34. Bit rate mode                            : Constant
  35. Bit rate                                 : 1 509 kb/s
  36. Channel(s)                               : 6 channels
  37. Channel layout                           : C L R Ls Rs LFE
  38. Sampling rate                            : 48.0 kHz
  39. Frame rate                               : 93.750 FPS (512 SPF)
  40. Bit depth                                : 24 bits
  41. Compression mode                         : Lossy
  42. Stream size                              : 1.35 GiB (14%)
  43. Language                                 : English
  44. Default                                  : Yes
  45. Forced                                   : No

  46. Text
  47. ID                                       : 3
  48. Format                                   : UTF-8
  49. Codec ID                                 : S_TEXT/UTF8
  50. Codec ID/Info                            : UTF-8 Plain Text
  51. Language                                 : English
  52. Default                                  : No
  53. Forced                                   : No

  54. Menu
  55. 00:00:00.000                             : en:00:00:00.000
  56. 00:03:24.996                             : en:00:03:24.996
  57. 00:05:00.258                             : en:00:05:00.258
  58. 00:11:20.305                             : en:00:11:20.305
  59. 00:16:53.304                             : en:00:16:53.304
  60. 00:22:13.791                             : en:00:22:13.791
  61. 00:25:42.499                             : en:00:25:42.499
  62. 00:27:45.789                             : en:00:27:45.789
  63. 00:33:52.822                             : en:00:33:52.822
  64. 00:38:19.589                             : en:00:38:19.589
  65. 00:40:18.374                             : en:00:40:18.374
  66. 00:42:56.574                             : en:00:42:56.574
  67. 00:43:56.008                             : en:00:43:56.008
  68. 00:53:07.976                             : en:00:53:07.976
  69. 00:58:23.625                             : en:00:58:23.625
  70. 01:02:05.180                             : en:01:02:05.180
  71. 01:05:31.302                             : en:01:05:31.302
  72. 01:08:35.528                             : en:01:08:35.528
  73. 01:12:30.638                             : en:01:12:30.638
  74. 01:16:00.222                             : en:01:16:00.222
  75. 01:18:17.234                             : en:01:18:17.234
  76. 01:23:47.814                             : en:01:23:47.814
  77. 01:25:26.413                             : en:01:25:26.413
  78. 01:29:02.629                             : en:01:29:02.629
  79. 01:31:39.160                             : en:01:31:39.160
  80. 01:38:07.173                             : en:01:38:07.173
  81. 01:42:22.762                             : en:01:42:22.762
  82. 01:45:28.322                             : en:01:45:28.322
  83. 01:49:15.340                             : en:01:49:15.340
  84. 01:52:06.178                             : en:01:52:06.178
  85. 01:57:30.502                             : en:01:57:30.502
  86. 01:59:29.371                             : en:01:59:29.371
  87. 02:02:06.069                             : en:02:02:06.069
  88. 02:05:58.092                             : en:02:05:58.092
复制代码








                                       
                                       

                                       
                                       
                                       




回复

使用道具 举报

懒得打字嘛,点击右侧快捷回复 【右侧内容,后台自定义】
您需要登录后才可以回帖 登录 | 立即加入

本版积分规则

Archiver|小黑屋| 蓝光电影网 |网站地图

Copyright © 2021 Comsenz Inc. Powered by 蓝光电影网

蓝光电影网

本站内容由用户自主分享和转载自互联网,转载目的在于传递更多信息,并不代表本网赞同其观点和对其真实性负责。

如有侵权、违反国家法律政策行为,请联系我们,我们会第一时间及时清除和处理!

举报反馈邮箱:[email protected]

快速回复 返回顶部 返回列表