找回密码

蓝光电影网

查看: 7|回复: 0

[喜剧] 芝加哥/漫舞芝加哥 Chicago.2002.1080p.BluRay.x264-LCHD 7.95GB

[复制链接]
蓝光币
382
发表于 2020-8-17 14:07:10 | 显示全部楼层 |阅读模式


◎译  名 芝加哥 / 漫舞芝加哥
◎片  名 Chicago
◎年  代 2002
◎产  地 美国 / 德国
◎类  别 笑剧 / 歌舞 / 犯罪
◎语  言 英语 / 匈牙利语
◎上映日期 2002-12-27(美国)
◎IMDb评分  7.1/10 from 211667 users
◎IMDb链接  https://www.imdb.com/title/tt0299658
◎豆瓣评分 8.8/10 from 114828 users
◎豆瓣链接 https://movie.douban.com/subject/1307697/
◎片  长 113 分钟
◎导  演 罗伯·马歇尔 Rob Marshall
◎编  剧 比尔·康顿 Bill Condon / 鲍勃·福斯 Bob Fosse / Fred Ebb / Maurine Dallas Watkins
◎主  演 蕾妮·泽尔维格 Renée Zellweger
       凯瑟琳·泽塔-琼斯 Catherine Zeta-Jones
       理查·基尔 Richard Gere
       奎恩·拉提法 Queen Latifah
       约翰·C·赖利 John C. Reilly
       刘玉玲 Lucy Liu
       泰雅·迪格斯 Taye Diggs
       克里斯汀·芭伦斯基 Christine Baranski
       多米尼克·威斯特 Dominic West
       杰恩·伊斯特伍德 Jayne Eastwood

◎标  签 美国 | 歌舞 | 歌舞片 | 音乐剧 | 歌舞剧 | 美国电影 | 犯罪 | 音乐
◎简  介

  
  两个女人,有着类似的履历,甚至是类似的心计,展开了为求成名的争取战。
  维尔玛(凯瑟琳?泽塔-琼斯 Catherine Zeta-Jones饰)是一个夜总会舞女,名望不大。由于一怒之下枪杀了出轨丈夫而被关进大牢。比利(理查德?基尔Richard Gere饰)是当地一个靠打谋杀案讼事而提升著名度的律师,他受理了这桩案件,心中有着自己的筹算。他借助媒体炒作维尔玛的案子,一方面维尔玛瞬间成为红人,而他自己也申明大振。
  但是洛克茜(芮妮·齐薇格 Renée Zellweger 饰)的案件却让比利转移了留意力。胡想成为歌星的洛克茜也是由于怒杀男友而身负罪名,比利决议要把她包装成我见犹怜的受害者,令媒体更疯狂的大告发道。
  维尔玛发觉情势不妙,为了成名,她跟洛克茜之间的斗法不成避免的起头了。
◎获奖情况  
  第75届奥斯卡金像奖(2003)
  最好影片 马丁·理查兹
  最好导演(提名) 罗伯·马歇尔
  最好女配角(提名) 蕾妮·齐薇格
  最好男配角(提名) 约翰·C·赖利
  最好女配角 凯瑟琳·泽塔-琼斯
  最好女配角(提名) 奎恩·拉提法
  最好改编剧本(提名) 比尔·康顿
  最好摄影(提名) 迪昂·毕比
  最好剪辑 马丁·沃尔什
  最好声响 迈克尔·明克勒 / 多米尼克·塔维拉 / 大卫·李
  最好艺术指导 戈登·西姆 / 约翰·迈尔
  最好打扮设想 柯琳·阿特伍德
  最好原创歌曲(提名) 弗雷德·埃布 / 约翰·坎德
  第60届金球奖(2003)
  电影类 最好音乐/笑剧片
  电影类 最好导演(提名) 罗伯·马歇尔
  电影类 音乐/笑剧片最好男配角 理查·基尔
  电影类 音乐/笑剧片最好女配角 蕾妮·齐薇格
  电影类 音乐/笑剧片最好女配角(提名) 凯瑟琳·泽塔-琼斯
  电影类 最好男配角(提名) 约翰·C·赖利
  电影类 最好女配角(提名) 奎恩·拉提法
  电影类 最好编剧(提名) 比尔·康顿
  第56届英国电影学院奖(2003)
  电影奖 最好影片(提名) 马丁·理查兹
  电影奖 最好导演(提名) 罗伯·马歇尔
  电影奖 最好女配角(提名) 蕾妮·齐薇格
  电影奖 最好女配角 凯瑟琳·泽塔-琼斯
  电影奖 最好女配角(提名) 奎恩·拉提法
  电影奖 最好摄影(提名) 迪昂·毕比
  电影奖 最好剪辑(提名) 马丁·沃尔什
  电影奖 最好化装/发型(提名) Judi Cooper-Sealy / Jordan Samuel
  电影奖 最好打扮设想(提名) 柯琳·阿特伍德
  电影奖 最好艺术指导(提名) 约翰·迈尔
  电影奖 最好原创音乐(提名) 弗雷德·埃布 / 丹尼·艾夫曼 / 约翰·坎德
  电影奖 最好音效 Maurice Schell / 迈克尔·明克勒 / 多米尼克·塔维拉 / 大卫·李
  第27届日本电影学院奖(2004)
  最好外语片(提名)
  第3届美国电影学会奖(2002)
  年度佳片
  1. Video
  2. ID                                       : 1
  3. Format                                   : AVC
  4. Format/Info                              : Advanced Video Codec
  5. Format profile                           : [email protected]
  6. Format settings                          : CABAC / 4 Ref Frames
  7. Format settings, CABAC                   : Yes
  8. Format settings, Reference frames        : 4 frames
  9. Codec ID                                 : V_MPEG4/ISO/AVC
  10. Duration                                 : 1 h 53 min
  11. Bit rate                                 : 9 388 kb/s
  12. Width                                    : 1 920 pixels
  13. Height                                   : 1 040 pixels
  14. Display aspect ratio                     : 1.85:1
  15. Frame rate mode                          : Constant
  16. Frame rate                               : 23.976 (24000/1001/189150) FPS
  17. Color space                              : YUV
  18. Chroma subsampling                       : 4:2:0
  19. Bit depth                                : 8 bits
  20. Scan type                                : Progressive
  21. Bits/(Pixel*Frame)                       : 0.196
  22. Stream size                              : 7.28 GiB (92%)
  23. Writing library                          : x264 core 79 r1360 528c100
  24. Encoding settings                        : cabac=1 / ref=4 / deblock=1:-1:-1 / analyse=0x3:0x113 / me=umh / subme=7 / psy=1 / psy_rd=1.0:0.0 / mixed_ref=1 / me_range=16 / chroma_me=1 / trellis=2 / 8x8dct=1 / cqm=0 / deadzone=21,11 / chroma_qp_offset=-2 / threads=6 / nr=0 / decimate=1 / mbaff=0 / constrained_intra=0 / bframes=3 / b_pyramid=0 / b_adapt=2 / b_bias=0 / direct=3 / wpredb=1 / wpredp=2 / keyint=250 / keyint_min=25 / scenecut=40 / rc_lookahead=40 / rc=2pass / mbtree=1 / bitrate=9388 / ratetol=1.0 / qcomp=0.60 / qpmin=10 / qpmax=51 / qpstep=4 / cplxblur=20.0 / qblur=0.5 / vbv_maxrate=50000 / vbv_bufsize=50000 / ip_ratio=1.40 / aq=1:1.00
  25. Language                                 : English
  26. Default                                  : Yes
  27. Forced                                   : No

  28. Audio
  29. ID                                       : 2
  30. Format                                   : AC-3
  31. Format/Info                              : Audio Coding 3
  32. Commercial name                          : Dolby Digital
  33. Codec ID                                 : A_AC3
  34. Duration                                 : 1 h 53 min
  35. Bit rate mode                            : Constant
  36. Bit rate                                 : 640 kb/s
  37. Channel(s)                               : 6 channels
  38. Channel layout                           : L R C LFE Ls Rs
  39. Sampling rate                            : 48.0 kHz
  40. Frame rate                               : 31.250 FPS (1536 SPF)
  41. Compression mode                         : Lossy
  42. Stream size                              : 519 MiB (6%)
  43. Language                                 : English
  44. Service kind                             : Complete Main
  45. Default                                  : Yes
  46. Forced                                   : No

  47. Text
  48. ID                                       : 3
  49. Format                                   : UTF-8
  50. Codec ID                                 : S_TEXT/UTF8
  51. Codec ID/Info                            : UTF-8 Plain Text
  52. Language                                 : English
  53. Default                                  : Yes
  54. Forced                                   : No
复制代码









                                       
                                       

                                       
                                       
                                       




回复

使用道具 举报

懒得打字嘛,点击右侧快捷回复 【右侧内容,后台自定义】
您需要登录后才可以回帖 登录 | 立即加入

本版积分规则

Archiver|小黑屋| 蓝光电影网 |网站地图

Copyright © 2021 Comsenz Inc. Powered by 蓝光电影网

蓝光电影网

本站内容由用户自主分享和转载自互联网,转载目的在于传递更多信息,并不代表本网赞同其观点和对其真实性负责。

如有侵权、违反国家法律政策行为,请联系我们,我们会第一时间及时清除和处理!

举报反馈邮箱:[email protected]

快速回复 返回顶部 返回列表