找回密码

蓝光电影网

查看: 15|回复: 0

[动作] 战斗少女 Mutant.Girls.Squad.2010.1080p.BluRay.x264-YAMG 7.57GB

[复制链接]
蓝光币
386
发表于 2021-6-12 14:04:04 | 显示全部楼层 |阅读模式


◎译  名 战役少女/Mutant Girls Squad
◎片  名 戦闘少女血の鉄仮面伝説
◎年  代 2010
◎产  地 日本
◎类  别 行动
◎语  言 日语
◎上映日期 2010-05-22
◎豆瓣评分 5.8/10 from 1048 users
◎豆瓣链接 https://movie.douban.com/subject/4290700/
◎片  长 90分钟
◎导  演 井口升 Noboru Iguchi / 西村喜广 Yoshihiro Nishimura / 坂口拓 Tak Sakaguchi
◎主  演 杉本有美 Yumi Sugimoto
       森田凉花 Suzuka Morita
       竹中直人 Naoto Takenaka
       亚纱美 Asami
       琴乃 Kotono
       高山侑子 Y?ko Takayama
       村田唯 Yui Murata
◎标  签 日本 | cult | 日本电影 | 2010 | 行动 | 井口昇 | 坂口拓 | 血腥
◎简  介


  高中少女渚凛(杉本有美 饰)行将迎来16岁的生日,可是她却发现自己的身材正静静发生着变化。生日当天,凛遭到激烈刺激,右手酿成了削铁如泥的魔爪。仓皇回抵家中的她从父亲洋二郎(津田寛治 饰)口中得知,自己竟是变异人“蛭子”的族人。接着她眼睁睁看着怙恃被隶属于日本政府的特种军队杀戮。愤慨的凛叫醒了身材内的魔性,在故乡四周的贸易街大开杀戒。尔后凛碰到蛭子一族的美男人首领如月(坂口拓 饰)和高中女生玲(高山侑子 饰),如月立誓建立一支足以与人类对抗的战役少女军队,而玲正是这群蛭后代孩的战役教练。种族战争一触即发……
  
  本片分为三章,各由坂口拓、井口昇、西村喜廣三位导演执导。
  1. Video
  2. ID                                       : 1
  3. Format                                   : AVC
  4. Format/Info                              : Advanced Video Codec
  5. Format profile                           : [email protected]
  6. Format settings                          : CABAC / 4 Ref Frames
  7. Format settings, CABAC                   : Yes
  8. Format settings, Reference frames        : 4 frames
  9. Codec ID                                 : V_MPEG4/ISO/AVC
  10. Duration                                 : 1 h 29 min
  11. Bit rate                                 : 9 800 kb/s
  12. Width                                    : 1 920 pixels
  13. Height                                   : 1 080 pixels
  14. Display aspect ratio                     : 16:9
  15. Frame rate mode                          : Constant
  16. Frame rate                               : 23.976 (24000/1001/189150) FPS
  17. Color space                              : YUV
  18. Chroma subsampling                       : 4:2:0
  19. Bit depth                                : 8 bits
  20. Scan type                                : Progressive
  21. Bits/(Pixel*Frame)                       : 0.197
  22. Stream size                              : 6.11 GiB (81%)
  23. Writing library                          : x264 core 161 r3043 59c0609
  24. Encoding settings                        : cabac=1 / ref=4 / deblock=1:-3:-3 / analyse=0x3:0x133 / me=umh / subme=10 / psy=1 / psy_rd=1.00:0.00 / mixed_ref=1 / me_range=32 / chroma_me=1 / trellis=2 / 8x8dct=1 / cqm=0 / deadzone=21,11 / fast_pskip=0 / chroma_qp_offset=-2 / threads=24 / lookahead_threads=4 / sliced_threads=0 / nr=0 / decimate=0 / interlaced=0 / bluray_compat=0 / constrained_intra=0 / bframes=8 / b_pyramid=2 / b_adapt=2 / b_bias=0 / direct=3 / weightb=1 / open_gop=0 / weightp=2 / keyint=250 / keyint_min=23 / scenecut=40 / intra_refresh=0 / rc=crf / mbtree=0 / crf=21.0 / qcomp=0.60 / qpmin=0 / qpmax=69 / qpstep=4 / ip_ratio=1.40 / pb_ratio=1.30 / aq=3:0.60
  25. Language                                 : English
  26. Default                                  : Yes
  27. Forced                                   : No
  28. Color range                              : Limited
  29. Matrix coefficients                      : BT.709

  30. Audio
  31. ID                                       : 2
  32. Format                                   : DTS XLL
  33. Format/Info                              : Digital Theater Systems
  34. Commercial name                          : DTS-HD Master Audio
  35. Codec ID                                 : A_DTS
  36. Duration                                 : 1 h 29 min
  37. Bit rate mode                            : Variable
  38. Bit rate                                 : 2 322 kb/s
  39. Channel(s)                               : 6 channels
  40. Channel layout                           : C L R Ls Rs LFE
  41. Sampling rate                            : 48.0 kHz
  42. Frame rate                               : 93.750 FPS (512 SPF)
  43. Bit depth                                : 16 bits
  44. Compression mode                         : Lossless
  45. Stream size                              : 1.45 GiB (19%)
  46. Title                                    : Japanese
  47. Language                                 : Japanese
  48. Default                                  : Yes
  49. Forced                                   : No

  50. Text #1
  51. ID                                       : 3
  52. Format                                   : UTF-8
  53. Codec ID                                 : S_TEXT/UTF8
  54. Codec ID/Info                            : UTF-8 Plain Text
  55. Duration                                 : 1 h 24 min
  56. Bit rate                                 : 21 b/s
  57. Count of elements                        : 711
  58. Stream size                              : 13.2 KiB (0%)
  59. Title                                    : English Forced
  60. Language                                 : English
  61. Default                                  : Yes
  62. Forced                                   : Yes

  63. Text #2
  64. ID                                       : 4
  65. Format                                   : PGS
  66. Muxing mode                              : zlib
  67. Codec ID                                 : S_HDMV/PGS
  68. Codec ID/Info                            : Picture based subtitle format used on BDs/HD-DVDs
  69. Duration                                 : 1 h 24 min
  70. Bit rate                                 : 13.9 kb/s
  71. Count of elements                        : 1422
  72. Stream size                              : 8.42 MiB (0%)
  73. Title                                    : English PGS
  74. Language                                 : English
  75. Default                                  : No
  76. Forced                                   : No

  77. Text #3
  78. ID                                       : 5
  79. Format                                   : PGS
  80. Muxing mode                              : zlib
  81. Codec ID                                 : S_HDMV/PGS
  82. Codec ID/Info                            : Picture based subtitle format used on BDs/HD-DVDs
  83. Duration                                 : 1 h 25 min
  84. Bit rate                                 : 13.9 kb/s
  85. Count of elements                        : 1566
  86. Stream size                              : 8.49 MiB (0%)
  87. Title                                    : Traditional Chinese PGS
  88. Language                                 : Chinese
  89. Default                                  : No
  90. Forced                                   : No

  91. Text #4
  92. ID                                       : 6
  93. Format                                   : PGS
  94. Muxing mode                              : zlib
  95. Codec ID                                 : S_HDMV/PGS
  96. Codec ID/Info                            : Picture based subtitle format used on BDs/HD-DVDs
  97. Duration                                 : 1 h 25 min
  98. Bit rate                                 : 13.7 kb/s
  99. Count of elements                        : 1566
  100. Stream size                              : 8.37 MiB (0%)
  101. Title                                    : Simplified Chinese PGS
  102. Language                                 : Chinese
  103. Default                                  : No
  104. Forced                                   : No

  105. Menu
  106. 00:00:00.000                             : en:Chapter 01
  107. 00:03:28.041                             : en:Chapter 02
  108. 00:08:05.443                             : en:Chapter 03
  109. 00:15:41.816                             : en:Chapter 04
  110. 00:25:05.045                             : en:Chapter 05
  111. 00:29:47.911                             : en:Chapter 06
  112. 00:34:42.372                             : en:Chapter 07
  113. 00:39:52.765                             : en:Chapter 08
  114. 00:46:52.893                             : en:Chapter 09
  115. 00:50:49.922                             : en:Chapter 10
  116. 00:54:08.495                             : en:Chapter 11
  117. 00:59:52.506                             : en:Chapter 12
  118. 01:05:34.848                             : en:Chapter 13
  119. 01:09:39.801                             : en:Chapter 14
  120. 01:13:56.724                             : en:Chapter 15
  121. 01:19:37.439                             : en:Chapter 16
  122. 01:25:57.694                             : en:Chapter 17
复制代码





                                       
                                       

                                       
                                       
                                       




回复

使用道具 举报

懒得打字嘛,点击右侧快捷回复 【右侧内容,后台自定义】
您需要登录后才可以回帖 登录 | 立即加入

本版积分规则

Archiver|小黑屋| 蓝光电影网 |网站地图

Copyright © 2021 Comsenz Inc. Powered by 蓝光电影网

蓝光电影网

本站内容由用户自主分享和转载自互联网,转载目的在于传递更多信息,并不代表本网赞同其观点和对其真实性负责。

如有侵权、违反国家法律政策行为,请联系我们,我们会第一时间及时清除和处理!

举报反馈邮箱:[email protected]

快速回复 返回顶部 返回列表