找回密码

蓝光电影网

查看: 16|回复: 0

[科幻] 寄生异形 Sputnik.2020.RUSSIAN.1080p.US.BluRay.x264.DTS-FGT 11.59GB

[复制链接]
蓝光币
382
发表于 2021-2-9 09:42:51 | 显示全部楼层 |阅读模式


◎译  名 寄生异形/Satellite/Sputnik/人造卫星/卫星
◎片  名 Спутник
◎年  代 2020
◎产  地 俄罗斯
◎类  别 科幻 / 可骇
◎语  言 俄语
◎上映日期 2020-04-15(翠贝卡电影节) / 2020-04-23(俄罗斯)
◎IMDb评分  6.4/10 from 14177 users
◎IMDb链接  https://www.imdb.com/title/tt11905962/
◎豆瓣评分 5.9/10 from 4663 users
◎豆瓣链接 https://movie.douban.com/subject/34852765/
◎片  长 105分钟
◎导  演 艾戈尔·阿布拉门科 Egor Abramenko
◎编  剧 奥列格·马洛维奇克 Oleg Malovichko / 安德烈·佐洛塔廖夫 Andrey Zolotarev
◎主  演 奥莎娜·阿金什那 Oksana Akinshina
       费奥多尔·邦达尔丘克 Fyodor Bondarchuk
       彼得·费奥多罗夫 Pyotr Fyodorov
       安东·瓦西利耶夫 Anton Vasilev
       阿列克谢·杰米多夫 Aleksey Demidov
       维塔丽雅·科尔尼扬科 Vitaliya Kornienko
◎标  签 科幻 | 俄罗斯 | 惊悚 | 外星人 | 可骇 | 2020 | 电影 | 悬疑
◎简  介


  年轻女医生Tatiana Yurievna(奥莎娜·阿金什那 Oksana Akinshina 饰)由于利用具争议的技术而差点被撤消医师执照。但她被军方招募来到一个机密的研讨机构,辅佐研讨一个特此外案例,太空人Konstantin Sergeyevich(彼得·费奥多罗 夫 Pyotr Fyodorov 饰)。这位太空人历经奥秘的太空意外后幸存返回地球,体内却多了外星生物,而且这个奥秘生物只在深夜时现身。军方想具有这个外星生物停止邪恶的计划,但女医生只想阻止外星生物杀戮太空人。
◎获奖情况
  第4届平遥国际电影展 ?(2020)
  首映单元最受接待影片(提名) 艾戈尔·阿布拉门科
  1. Video
  2. ID                                       : 1
  3. Format                                   : AVC
  4. Format/Info                              : Advanced Video Codec
  5. Format profile                           : [email protected]
  6. Format settings                          : CABAC / 4 Ref Frames
  7. Format settings, CABAC                   : Yes
  8. Format settings, Reference frames        : 4 frames
  9. Codec ID                                 : V_MPEG4/ISO/AVC
  10. Duration                                 : 1 h 54 min
  11. Bit rate                                 : 11.5 Mb/s
  12. Width                                    : 1 920 pixels
  13. Height                                   : 804 pixels
  14. Display aspect ratio                     : 2.40:1
  15. Frame rate mode                          : Constant
  16. Frame rate                               : 23.976 (24000/1001/189150) FPS
  17. Color space                              : YUV
  18. Chroma subsampling                       : 4:2:0
  19. Bit depth                                : 8 bits
  20. Scan type                                : Progressive
  21. Bits/(Pixel*Frame)                       : 0.311
  22. Stream size                              : 9.16 GiB (79%)
  23. Writing library                          : x264 core 148 r2748 97eaef2
  24. Encoding settings                        : cabac=1 / ref=4 / deblock=1:-2:-2 / analyse=0x3:0x113 / me=umh / subme=9 / psy=1 / psy_rd=1.00:0.15 / mixed_ref=1 / me_range=16 / chroma_me=1 / trellis=2 / 8x8dct=1 / cqm=0 / deadzone=21,11 / fast_pskip=1 / chroma_qp_offset=-3 / threads=72 / lookahead_threads=3 / sliced_threads=0 / nr=0 / decimate=1 / interlaced=0 / bluray_compat=0 / constrained_intra=0 / bframes=3 / b_pyramid=2 / b_adapt=1 / b_bias=0 / direct=3 / weightb=1 / open_gop=0 / weightp=2 / keyint=250 / keyint_min=25 / scenecut=40 / intra_refresh=0 / rc_lookahead=50 / rc=2pass / mbtree=1 / bitrate=11500 / ratetol=1.0 / qcomp=0.60 / qpmin=0 / qpmax=69 / qpstep=4 / cplxblur=20.0 / qblur=0.5 / vbv_maxrate=31250 / vbv_bufsize=31250 / nal_hrd=none / filler=0 / ip_ratio=1.40 / aq=1:1.00
  25. Language                                 : English
  26. Default                                  : Yes
  27. Forced                                   : No
  28. Audio #1
  29. ID                                       : 2
  30. Format                                   : DTS
  31. Format/Info                              : Digital Theater Systems
  32. Codec ID                                 : A_DTS
  33. Duration                                 : 1 h 54 min
  34. Bit rate mode                            : Constant
  35. Bit rate                                 : 1 509 kb/s
  36. Channel(s)                               : 6 channels
  37. Channel layout                           : C L R Ls Rs LFE
  38. Sampling rate                            : 48.0 kHz
  39. Frame rate                               : 93.750 FPS (512 SPF)
  40. Bit depth                                : 24 bits
  41. Compression mode                         : Lossy
  42. Stream size                              : 1.20 GiB (10%)
  43. Title                                    : DTS 5.1
  44. Language                                 : Russian
  45. Default                                  : Yes
  46. Forced                                   : No
  47. Audio #2
  48. ID                                       : 3
  49. Format                                   : DTS
  50. Format/Info                              : Digital Theater Systems
  51. Codec ID                                 : A_DTS
  52. Duration                                 : 1 h 54 min
  53. Bit rate mode                            : Constant
  54. Bit rate                                 : 1 509 kb/s
  55. Channel(s)                               : 6 channels
  56. Channel layout                           : C L R Ls Rs LFE
  57. Sampling rate                            : 48.0 kHz
  58. Frame rate                               : 93.750 FPS (512 SPF)
  59. Bit depth                                : 24 bits
  60. Compression mode                         : Lossy
  61. Stream size                              : 1.20 GiB (10%)
  62. Title                                    : DTS 5.1
  63. Language                                 : English
  64. Default                                  : No
  65. Forced                                   : No
  66. Text #1
  67. ID                                       : 4
  68. Format                                   : UTF-8
  69. Codec ID                                 : S_TEXT/UTF8
  70. Codec ID/Info                            : UTF-8 Plain Text
  71. Duration                                 : 1 h 47 min
  72. Bit rate                                 : 40 b/s
  73. Count of elements                        : 1130
  74. Stream size                              : 31.8 KiB (0%)
  75. Title                                    : English-SRT
  76. Language                                 : English
  77. Default                                  : Yes
  78. Forced                                   : No
  79. Text #2
  80. ID                                       : 5
  81. ID in the original source medium         : 4608 (0x1200)
  82. Format                                   : PGS
  83. Muxing mode                              : zlib
  84. Codec ID                                 : S_HDMV/PGS
  85. Codec ID/Info                            : Picture based subtitle format used on BDs/HD-DVDs
  86. Duration                                 : 1 h 51 min
  87. Bit rate                                 : 30.3 kb/s
  88. Count of elements                        : 2192
  89. Stream size                              : 24.1 MiB (0%)
  90. Title                                    : English-SDH-PGS
  91. Language                                 : English
  92. Default                                  : No
  93. Forced                                   : No
  94. Original source medium                   : Blu-ray
  95. Text #3
  96. ID                                       : 6
  97. ID in the original source medium         : 4609 (0x1201)
  98. Format                                   : PGS
  99. Muxing mode                              : zlib
  100. Codec ID                                 : S_HDMV/PGS
  101. Codec ID/Info                            : Picture based subtitle format used on BDs/HD-DVDs
  102. Duration                                 : 1 h 47 min
  103. Bit rate                                 : 1 180 b/s
  104. Count of elements                        : 94
  105. Stream size                              : 930 KiB (0%)
  106. Title                                    : English-FORCED-PGS
  107. Language                                 : English
  108. Default                                  : No
  109. Forced                                   : No
  110. Original source medium                   : Blu-ray
  111. Text #4
  112. ID                                       : 7
  113. ID in the original source medium         : 4610 (0x1202)
  114. Format                                   : PGS
  115. Muxing mode                              : zlib
  116. Codec ID                                 : S_HDMV/PGS
  117. Codec ID/Info                            : Picture based subtitle format used on BDs/HD-DVDs
  118. Duration                                 : 1 h 47 min
  119. Bit rate                                 : 22.6 kb/s
  120. Count of elements                        : 1834
  121. Stream size                              : 17.4 MiB (0%)
  122. Title                                    : English-PGS
  123. Language                                 : English
  124. Default                                  : No
  125. Forced                                   : No
  126. Original source medium                   : Blu-ray
  127. Menu
  128. 00:00:00.000                             : en:Chapter 01
  129. 00:08:10.531                             : en:Chapter 02
  130. 00:15:43.984                             : en:Chapter 03
  131. 00:24:06.736                             : en:Chapter 04
  132. 00:36:38.196                             : en:Chapter 05
  133. 00:49:19.748                             : en:Chapter 06
  134. 01:00:02.181                             : en:Chapter 07
  135. 01:09:45.389                             : en:Chapter 08
  136. 01:17:01.408                             : en:Chapter 09
  137. 01:27:32.705                             : en:Chapter 10
  138. 01:35:40.234                             : en:Chapter 11
  139. 01:44:49.491                             : en:Chapter 12
  140. 01:54:04.128                             : en:Chapter 13
复制代码






                                       
                                       

                                       
                                       
                                       




回复

使用道具 举报

懒得打字嘛,点击右侧快捷回复 【右侧内容,后台自定义】
您需要登录后才可以回帖 登录 | 立即加入

本版积分规则

Archiver|小黑屋| 蓝光电影网 |网站地图

Copyright © 2021 Comsenz Inc. Powered by 蓝光电影网

蓝光电影网

本站内容由用户自主分享和转载自互联网,转载目的在于传递更多信息,并不代表本网赞同其观点和对其真实性负责。

如有侵权、违反国家法律政策行为,请联系我们,我们会第一时间及时清除和处理!

举报反馈邮箱:[email protected]

快速回复 返回顶部 返回列表