找回密码

蓝光电影网

查看: 9|回复: 0

[恐怖] 滴血的项链 Picture.Mommy.Dead.1966.1080p.BluRay.x264.FLAC.2.0-HANDJOB 5.40GB

[复制链接]
蓝光币
382
发表于 2021-2-21 12:05:05 | 显示全部楼层 |阅读模式


◎译  名 滴血的项链
◎片  名 Picture Mommy Dead
◎年  代 1966
◎产  地 美国
◎类  别 可骇
◎语  言 英语
◎上映日期 1966-11-02(美国纽约)
◎IMDb评分  5.4/10 from 545 users
◎IMDb链接  https://www.imdb.com/title/tt0060831/
◎豆瓣评分 /10 from 0 users
◎豆瓣链接 https://movie.douban.com/subject/3907801/
◎片  长 88 分钟
◎导  演 伯特·I·戈登 Bert I. Gordon
◎编  剧 罗伯特·舍曼 Robert Sherman
◎主  演 唐·阿米契 Don Ameche
       玛莎·海尔 Martha Hyer
       苏珊·戈登 Susan Gordon
       莎莎·嘉宝 Zsa Zsa Gabor
       安娜·李 Anna Lee
       罗伯特·舍曼 Robert Sherman
       西涅·哈索 Signe Hasso
       Kelly Corcoran
       温戴尔·柯瑞 Wendell Corey
       马克斯韦尔·里德 Maxwell Reed
◎标  签 美国 | 犯罪 | 可骇 | 不是默片
◎简  介


  暂无相关剧情先容
  1. Video
  2. ID                                       : 1
  3. Format                                   : AVC
  4. Format/Info                              : Advanced Video Codec
  5. Format profile                           : [email protected]
  6. Format settings                          : CABAC / 4 Ref Frames
  7. Format settings, CABAC                   : Yes
  8. Format settings, Reference frames        : 4 frames
  9. Codec ID                                 : V_MPEG4/ISO/AVC
  10. Duration                                 : 1 h 23 min
  11. Bit rate                                 : 9 012 kb/s
  12. Width                                    : 1 800 pixels
  13. Height                                   : 1 080 pixels
  14. Display aspect ratio                     : 5:3
  15. Frame rate mode                          : Constant
  16. Frame rate                               : 23.976 (24000/1001/189150) FPS
  17. Color space                              : YUV
  18. Chroma subsampling                       : 4:2:0
  19. Bit depth                                : 8 bits
  20. Scan type                                : Progressive
  21. Bits/(Pixel*Frame)                       : 0.193
  22. Stream size                              : 5.23 GiB (97%)
  23. Writing library                          : x264 core 148
  24. Encoding settings                        : cabac=1 / ref=4 / deblock=1:-3:-3 / analyse=0x3:0x133 / me=umh / subme=10 / psy=1 / psy_rd=1.00:0.00 / mixed_ref=1 / me_range=32 / chroma_me=1 / trellis=2 / 8x8dct=1 / cqm=0 / deadzone=21,11 / fast_pskip=0 / chroma_qp_offset=-2 / threads=34 / lookahead_threads=8 / sliced_threads=0 / nr=0 / decimate=0 / interlaced=0 / bluray_compat=0 / constrained_intra=0 / bframes=16 / b_pyramid=2 / b_adapt=2 / b_bias=0 / direct=3 / weightb=1 / open_gop=0 / weightp=2 / keyint=240 / keyint_min=24 / scenecut=40 / intra_refresh=0 / rc_lookahead=60 / rc=crf / mbtree=0 / crf=21.0 / qcomp=0.60 / qpmin=0 / qpmax=69 / qpstep=4 / vbv_maxrate=62500 / vbv_bufsize=78125 / crf_max=0.0 / nal_hrd=none / filler=0 / ip_ratio=1.40 / pb_ratio=1.30 / aq=2:1.00
  25. Default                                  : Yes
  26. Forced                                   : No
  27. Color range                              : Limited
  28. Color primaries                          : BT.709
  29. Transfer characteristics                 : BT.709
  30. Matrix coefficients                      : BT.709
  31. Audio
  32. ID                                       : 2
  33. Format                                   : FLAC
  34. Format/Info                              : Free Lossless Audio Codec
  35. Codec ID                                 : A_FLAC
  36. Duration                                 : 1 h 22 min
  37. Bit rate mode                            : Variable
  38. Bit rate                                 : 289 kb/s
  39. Channel(s)                               : 2 channels
  40. Channel layout                           : L R
  41. Sampling rate                            : 48.0 kHz
  42. Frame rate                               : 11.719 FPS (4096 SPF)
  43. Bit depth                                : 16 bits
  44. Compression mode                         : Lossless
  45. Delay relative to video                  : 11 s 0 ms
  46. Stream size                              : 172 MiB (3%)
  47. Writing library                          : libFLAC 1.2.1 (UTC 2007-09-17)
  48. Language                                 : English
  49. Default                                  : Yes
  50. Forced                                   : No
  51. Text
  52. ID                                       : 3
  53. Format                                   : UTF-8
  54. Codec ID                                 : S_TEXT/UTF8
  55. Codec ID/Info                            : UTF-8 Plain Text
  56. Duration                                 : 1 h 21 min
  57. Bit rate                                 : 60 b/s
  58. Count of elements                        : 1228
  59. Stream size                              : 36.2 KiB (0%)
  60. Language                                 : English
  61. Default                                  : Yes
  62. Forced                                   : No
  63. Menu
  64. 00:00:00.000                             : :Chapter 1
  65. 00:06:39.107                             : :Chapter 2
  66. 00:15:56.956                             : :Chapter 3
  67. 00:25:52.426                             : :Chapter 4
  68. 00:38:44.739                             : :Chapter 5
  69. 00:50:04.251                             : :Chapter 6
  70. 01:03:23.925                             : :Chapter 7
  71. 01:13:13.639                             : :Chapter 8
复制代码






                                       
                                       

                                       
                                       
                                       




回复

使用道具 举报

懒得打字嘛,点击右侧快捷回复 【右侧内容,后台自定义】
您需要登录后才可以回帖 登录 | 立即加入

本版积分规则

Archiver|小黑屋| 蓝光电影网 |网站地图

Copyright © 2021 Comsenz Inc. Powered by 蓝光电影网

蓝光电影网

本站内容由用户自主分享和转载自互联网,转载目的在于传递更多信息,并不代表本网赞同其观点和对其真实性负责。

如有侵权、违反国家法律政策行为,请联系我们,我们会第一时间及时清除和处理!

举报反馈邮箱:[email protected]

快速回复 返回顶部 返回列表