找回密码

蓝光电影网

查看: 11|回复: 0

[喜剧] 家族之苦3 What.a.Wonderful.Family.3.My.Wife.My.Life.2018.720p.BluRay.x264-REGRET 5.48GB

[复制链接]
蓝光币
382
发表于 2019-8-15 13:35:18 | 显示全部楼层 |阅读模式


◎译  名 家属之苦3 / What a Wonderful Family! 3: My Wife, My Life / Wife, Be Like a Rose: What a Wonderful Family! 3 / 嫲烦家属3走佬阿嫂(港) / 家属之苦3:像蔷薇一样的妻子啊 / 家属之苦3:蔷薇之妻
◎片  名 妻よ薔薇のように 家属はつらいよIII
◎年  代 2018
◎产  地 日本
◎类  别 笑剧 / 家庭
◎语  言 日语
◎上映日期 2018-04-05(香港电影节) / 2018-05-25(日本)
◎IMDb评分  7.0/10 from 177 users
◎IMDb链接  http://www.imdb.com/title/tt7493808
◎豆瓣评分 7.9/10 from 11238 users
◎豆瓣链接 https://movie.douban.com/subject/27108740/
◎片  长 123分钟
◎导  演 山田洋次 Y?ji Yamada
◎编  剧 山田洋次 Y?ji Yamada / 平松惠美子 Emiko Hiramatsu
◎主  演 桥爪功 Isao Hashizume
       吉行和子 Kazuko Yoshiyuki
       西村雅彦 Masahiko Nishimura
       夏川结衣 Yui Natsukawa
       中岛朋子 Tomoko Nakajima
       林家正蔵 Hayashiya Shozo
       妻夫木聪 Satoshi Tsumabuki
       苍井优 Yu Aoi
       藤山扇治郎 Senjirō Fujiyama
       广冈由里子 Yuriko Hiro'oka
       北山雅康 Masayasu Kitayama
       大沼柚希 Y?ki Tokunaga
       小林飒 Kai Kobayashi
       小川绘莉 Eri Ogawa
       徳永雄辉 Yuuki Tokunaga
       小林稔侍 Nenji Kobayashi
       风吹淳 Jun Fubuki
       木场胜己 Katsumi Kiba
       立川志らく Shiraku Tatekawa
       笹野高史 Takashi Sasano
       笑福亭鹤瓶 Tsurubei Shofukutei

◎标  签 日本 | 家庭 | 笑剧 | 2018 | 亲情 | 温情 | 剧情 | 人生
◎简  介  
  此次的故事将围绕 “妻子”展开。史枝(夏川结衣饰)作为家庭妇女,与丈夫幸之助(西村雅彦饰)、2个儿子以及公婆住在一路。某全国午,家里遭小偷,藏在冰箱里的私租金被洗劫一空。在丈夫的埋怨中,史枝决心离家出走,而平田家也是以堕入紊乱。由于富子(吉行和子饰)身材欠好,周造(桥爪功饰)起头与扫除、洗衣、做饭展开“恶战”,并深切体味到史枝的不易。但是史枝并没有回家的意义,平田家不能不再次召开告急家庭会议……
◎获奖情况  
  第43届报知映画赏(2018)
  最好男配角(提名) 西村雅彦
  第5届豆瓣电影年度榜单(2018)
  评分最高的日本电影(提名)
  1. Video
  2. ID                                       : 1
  3. Format                                   : AVC
  4. Format/Info                              : Advanced Video Codec
  5. Format profile                           : [email protected]
  6. Format settings                          : CABAC / 5 Ref Frames
  7. Format settings, CABAC                   : Yes
  8. Format settings, Reference frames        : 5 frames
  9. Codec ID                                 : V_MPEG4/ISO/AVC
  10. Duration                                 : 2 h 3 min
  11. Bit rate                                 : 5 702 kb/s
  12. Width                                    : 1 280 pixels
  13. Height                                   : 536 pixels
  14. Display aspect ratio                     : 2.40:1
  15. Frame rate mode                          : Constant
  16. Frame rate                               : 23.976 (24000/1001) FPS
  17. Color space                              : YUV
  18. Chroma subsampling                       : 4:2:0
  19. Bit depth                                : 8 bits
  20. Scan type                                : Progressive
  21. Bits/(Pixel*Frame)                       : 0.347
  22. Stream size                              : 4.91 GiB (90%)
  23. Writing library                          : x264 core 157 r2970 5493be8
  24. Encoding settings                        : cabac=1 / ref=5 / deblock=1:-3:-3 / analyse=0x3:0x133 / me=umh / subme=9 / psy=1 / psy_rd=1.00:0.00 / mixed_ref=1 / me_range=16 / chroma_me=1 / trellis=2 / 8x8dct=1 / cqm=0 / deadzone=21,11 / fast_pskip=0 / chroma_qp_offset=-2 / threads=17 / lookahead_threads=1 / sliced_threads=0 / nr=0 / decimate=1 / interlaced=0 / bluray_compat=0 / constrained_intra=0 / bframes=3 / b_pyramid=2 / b_adapt=1 / b_bias=0 / direct=3 / weightb=1 / open_gop=0 / weightp=2 / keyint=240 / keyint_min=24 / scenecut=40 / intra_refresh=0 / rc_lookahead=50 / rc=2pass / mbtree=1 / bitrate=5702 / ratetol=1.0 / qcomp=0.60 / qpmin=0 / qpmax=69 / qpstep=4 / cplxblur=20.0 / qblur=0.5 / ip_ratio=1.40 / aq=1:1.00
  25. Language                                 : English
  26. Default                                  : Yes
  27. Forced                                   : No

  28. Audio
  29. ID                                       : 2
  30. Format                                   : AC-3
  31. Format/Info                              : Audio Coding 3
  32. Commercial name                          : Dolby Digital
  33. Codec ID                                 : A_AC3
  34. Duration                                 : 2 h 3 min
  35. Bit rate mode                            : Constant
  36. Bit rate                                 : 640 kb/s
  37. Channel(s)                               : 6 channels
  38. Channel layout                           : L R C LFE Ls Rs
  39. Sampling rate                            : 48.0 kHz
  40. Frame rate                               : 31.250 FPS (1536 SPF)
  41. Bit depth                                : 16 bits
  42. Compression mode                         : Lossy
  43. Stream size                              : 565 MiB (10%)
  44. Language                                 : Japanese
  45. Service kind                             : Complete Main
  46. Default                                  : Yes
  47. Forced                                   : No

  48. Text
  49. ID                                       : 3
  50. Format                                   : UTF-8
  51. Codec ID                                 : S_TEXT/UTF8
  52. Codec ID/Info                            : UTF-8 Plain Text
  53. Duration                                 : 2 h 2 min
  54. Bit rate                                 : 46 b/s
  55. Count of elements                        : 1645
  56. Stream size                              : 41.4 KiB (0%)
  57. Title                                    : English
  58. Language                                 : English
  59. Default                                  : Yes
  60. Forced                                   : Yes

  61. Menu
  62. 00:00:00.000                             : en:00:00:00.000
  63. 00:20:21.011                             : en:00:20:21.011
  64. 00:25:47.671                             : en:00:25:47.671
  65. 00:37:05.265                             : en:00:37:05.265
  66. 00:46:21.028                             : en:00:46:21.028
  67. 00:58:28.588                             : en:00:58:28.588
  68. 01:02:37.837                             : en:01:02:37.837
  69. 01:12:21.045                             : en:01:12:21.045
  70. 01:26:04.826                             : en:01:26:04.826
  71. 01:32:30.253                             : en:01:32:30.253
  72. 01:39:34.051                             : en:01:39:34.051
  73. 01:49:42.451                             : en:01:49:42.451
复制代码




                                       
                                       

                                       
                                       
                                       




回复

使用道具 举报

懒得打字嘛,点击右侧快捷回复 【右侧内容,后台自定义】
您需要登录后才可以回帖 登录 | 立即加入

本版积分规则

Archiver|小黑屋| 蓝光电影网 |网站地图

Copyright © 2021 Comsenz Inc. Powered by 蓝光电影网

蓝光电影网

本站内容由用户自主分享和转载自互联网,转载目的在于传递更多信息,并不代表本网赞同其观点和对其真实性负责。

如有侵权、违反国家法律政策行为,请联系我们,我们会第一时间及时清除和处理!

举报反馈邮箱:[email protected]

快速回复 返回顶部 返回列表