找回密码

蓝光电影网

查看: 30|回复: 0

[动作] 科学小飞侠 Gatchaman.2013.1080p.BluRay.x264-YAMG 10.75GB

[复制链接]
蓝光币
426
发表于 2021-6-12 12:14:59 | 显示全部楼层 |阅读模式


◎译  名 科学小飞侠/Gatchaman/科学忍者队/科学忍者隊ガッチャマン
◎片  名 ガッチャマン
◎年  代 2013
◎产  地 日本
◎类  别 行动 / 科幻
◎语  言 日语
◎上映日期 2013-08-24
◎豆瓣评分 4.9/10 from 434 users
◎豆瓣链接 https://movie.douban.com/subject/20017314/
◎片  长 109分钟
◎导  演 佐藤东弥 T?ya Sat?
◎编  剧 渡边雄介 Y?suke Watanabe / 布拉吉·F·舒特 Bragi F. Schut
◎主  演 松坂桃李 T?ri Matsuzaka
       绫野刚 G? Ayano
       刚力彩芽 Ayame G?riki
       滨田龙臣 Tatsuomi Hamada
       铃木亮平 Ryohei Suzuki
       光石研 Ken Mitsuishi
       初音映莉子 Eriko Hatsune
       中村狮童 Shido Nakamura
       岸谷五朗 Gor? Kishitani
       吉田翔 Kakeru Yoshida
       菜叶菜 Nahana
◎标  签 日本 | 科幻 | 日本电影 | 松坂桃李 | 綾野剛 | 2013 | 电影 | 日影
◎简  介


  未来天下,传染了X病毒的恶魔党照顾能力强大的赤盾出现在地球各个角落。仅仅是七天的时候,地球一半的国土便宣布沦陷。人们流浪失所,躲在最初的保存地苟延残喘。国际科学技术厅(ISO)的南部博士(岸谷五朗 饰)发现一种奥秘的石头可以赋予特定人群以强大的气力,而气力提升后的超级战士正是阻挡恶魔党的不贰人选。在此以后,鹫尾健(松坂桃李 饰)、大月纯(刚力彩芽 饰)、大月甚平(滨田龙臣 饰)和中西龙(铃木良平 饰)等人获得ISO的挖掘,经过连番凡人难以设想的特训,他们长大为匹敌恶魔党的科学忍者队战士。某次战役后,健的老友浅仓乔治(绫野刚 饰)加入进来,他们受命去庇护恶魔党流亡过来的头子伊利亚(中村狮童 饰),以期获得Last Suicide计划的详情。
  
  面临这个有着深仇大恨的仇敌,健和乔治的心里静静发生着变化……
  1. Video
  2. ID                                       : 1
  3. Format                                   : AVC
  4. Format/Info                              : Advanced Video Codec
  5. Format profile                           : [email protected]
  6. Format settings                          : CABAC / 5 Ref Frames
  7. Format settings, CABAC                   : Yes
  8. Format settings, Reference frames        : 5 frames
  9. Codec ID                                 : V_MPEG4/ISO/AVC
  10. Duration                                 : 1 h 49 min
  11. Bit rate                                 : 10.1 Mb/s
  12. Width                                    : 1 920 pixels
  13. Height                                   : 800 pixels
  14. Display aspect ratio                     : 2.40:1
  15. Frame rate mode                          : Constant
  16. Frame rate                               : 23.976 (24000/1001/189150) FPS
  17. Color space                              : YUV
  18. Chroma subsampling                       : 4:2:0
  19. Bit depth                                : 8 bits
  20. Scan type                                : Progressive
  21. Bits/(Pixel*Frame)                       : 0.274
  22. Stream size                              : 7.74 GiB (72%)
  23. Writing library                          : x264 core 161 r3048 b86ae3c
  24. Encoding settings                        : cabac=1 / ref=5 / deblock=1:-3:-3 / analyse=0x3:0x133 / me=umh / subme=10 / psy=1 / psy_rd=1.00:0.00 / mixed_ref=1 / me_range=32 / chroma_me=1 / trellis=2 / 8x8dct=1 / cqm=0 / deadzone=21,11 / fast_pskip=0 / chroma_qp_offset=-2 / threads=24 / lookahead_threads=4 / sliced_threads=0 / nr=0 / decimate=0 / interlaced=0 / bluray_compat=0 / constrained_intra=0 / bframes=8 / b_pyramid=2 / b_adapt=2 / b_bias=0 / direct=3 / weightb=1 / open_gop=0 / weightp=2 / keyint=250 / keyint_min=23 / scenecut=40 / intra_refresh=0 / rc=crf / mbtree=0 / crf=18.0 / qcomp=0.60 / qpmin=0 / qpmax=69 / qpstep=4 / ip_ratio=1.40 / pb_ratio=1.30 / aq=3:0.60
  25. Language                                 : English
  26. Default                                  : Yes
  27. Forced                                   : No
  28. Color range                              : Limited
  29. Matrix coefficients                      : BT.709

  30. Audio #1
  31. ID                                       : 2
  32. Format                                   : MLP FBA
  33. Format/Info                              : Meridian Lossless Packing FBA
  34. Commercial name                          : Dolby TrueHD
  35. Codec ID                                 : A_TRUEHD
  36. Duration                                 : 1 h 49 min
  37. Bit rate mode                            : Variable
  38. Bit rate                                 : 3 188 kb/s
  39. Maximum bit rate                         : 4 812 kb/s
  40. Channel(s)                               : 6 channels
  41. Channel layout                           : L R C LFE Ls Rs
  42. Sampling rate                            : 96.0 kHz
  43. Frame rate                               : 1 200.000 FPS (80 SPF)
  44. Compression mode                         : Lossless
  45. Stream size                              : 2.44 GiB (23%)
  46. Title                                    : Japanese
  47. Language                                 : Japanese
  48. Default                                  : Yes
  49. Forced                                   : No

  50. Audio #2
  51. ID                                       : 3
  52. Format                                   : AC-3
  53. Format/Info                              : Audio Coding 3
  54. Commercial name                          : Dolby Digital
  55. Codec ID                                 : A_AC3
  56. Duration                                 : 1 h 49 min
  57. Bit rate mode                            : Constant
  58. Bit rate                                 : 640 kb/s
  59. Channel(s)                               : 6 channels
  60. Channel layout                           : L R C LFE Ls Rs
  61. Sampling rate                            : 48.0 kHz
  62. Frame rate                               : 31.250 FPS (1536 SPF)
  63. Compression mode                         : Lossy
  64. Stream size                              : 503 MiB (5%)
  65. Title                                    : Japanese
  66. Language                                 : Japanese
  67. Service kind                             : Complete Main
  68. Default                                  : No
  69. Forced                                   : No

  70. Text #1
  71. ID                                       : 4
  72. Format                                   : UTF-8
  73. Codec ID                                 : S_TEXT/UTF8
  74. Codec ID/Info                            : UTF-8 Plain Text
  75. Duration                                 : 1 h 44 min
  76. Bit rate                                 : 31 b/s
  77. Count of elements                        : 1129
  78. Stream size                              : 24.5 KiB (0%)
  79. Title                                    : English Forced
  80. Language                                 : English
  81. Default                                  : Yes
  82. Forced                                   : Yes

  83. Text #2
  84. ID                                       : 5
  85. Format                                   : PGS
  86. Muxing mode                              : zlib
  87. Codec ID                                 : S_HDMV/PGS
  88. Codec ID/Info                            : Picture based subtitle format used on BDs/HD-DVDs
  89. Duration                                 : 1 h 44 min
  90. Bit rate                                 : 21.5 kb/s
  91. Count of elements                        : 2258
  92. Stream size                              : 16.1 MiB (0%)
  93. Title                                    : English Forced PGS
  94. Language                                 : English
  95. Default                                  : No
  96. Forced                                   : No

  97. Text #3
  98. ID                                       : 6
  99. Format                                   : PGS
  100. Muxing mode                              : zlib
  101. Codec ID                                 : S_HDMV/PGS
  102. Codec ID/Info                            : Picture based subtitle format used on BDs/HD-DVDs
  103. Duration                                 : 1 h 44 min
  104. Bit rate                                 : 25.1 kb/s
  105. Count of elements                        : 2286
  106. Stream size                              : 18.8 MiB (0%)
  107. Title                                    : Traditional Chinese PGS
  108. Language                                 : Chinese
  109. Default                                  : No
  110. Forced                                   : No

  111. Text #4
  112. ID                                       : 7
  113. Format                                   : PGS
  114. Muxing mode                              : zlib
  115. Codec ID                                 : S_HDMV/PGS
  116. Codec ID/Info                            : Picture based subtitle format used on BDs/HD-DVDs
  117. Duration                                 : 1 h 44 min
  118. Bit rate                                 : 25.0 kb/s
  119. Count of elements                        : 2286
  120. Stream size                              : 18.7 MiB (0%)
  121. Title                                    : Simplified Chinese PGS
  122. Language                                 : Chinese
  123. Default                                  : No
  124. Forced                                   : No

  125. Menu
  126. 00:00:00.000                             : en:Chapter 01
  127. 00:08:48.486                             : en:Chapter 02
  128. 00:21:13.772                             : en:Chapter 03
  129. 00:29:49.913                             : en:Chapter 04
  130. 00:36:07.624                             : en:Chapter 05
  131. 00:45:01.073                             : en:Chapter 06
  132. 00:53:50.561                             : en:Chapter 07
  133. 01:04:38.541                             : en:Chapter 08
  134. 01:12:50.866                             : en:Chapter 09
  135. 01:22:14.263                             : en:Chapter 10
  136. 01:31:02.415                             : en:Chapter 11
  137. 01:40:40.660                             : en:Chapter 12
复制代码





                                       
                                       

                                       
                                       
                                       




回复

使用道具 举报

懒得打字嘛,点击右侧快捷回复 【右侧内容,后台自定义】
您需要登录后才可以回帖 登录 | 立即加入

本版积分规则

Archiver|小黑屋| 蓝光电影网 |网站地图

Copyright © 2021 Comsenz Inc. Powered by 蓝光电影网

蓝光电影网

本站内容由用户自主分享和转载自互联网,转载目的在于传递更多信息,并不代表本网赞同其观点和对其真实性负责。

如有侵权、违反国家法律政策行为,请联系我们,我们会第一时间及时清除和处理!

举报反馈邮箱:[email protected]

快速回复 返回顶部 返回列表