找回密码

蓝光电影网

查看: 7|回复: 0

[恐怖] 水上乐园大屠杀/血染水上乐园 Aquaslash.2019.1080p.BluRay.x264.DD5.1-HANDJOB 5.67GB

[复制链接]
蓝光币
382
发表于 2021-2-16 09:21:55 | 显示全部楼层 |阅读模式


◎译  名 水上乐园大屠杀/血染水上乐园
◎片  名 Aquaslash
◎年  代 2019
◎产  地 加拿大
◎类  别 可骇
◎语  言 英语
◎上映日期 2019-07-29(加拿大)
◎IMDb评分  4.4/10 from 1329 users
◎IMDb链接  https://www.imdb.com/title/tt7286836/
◎豆瓣评分 3.9/10 from 121 users
◎豆瓣链接 https://movie.douban.com/subject/34430900/
◎片  长 71分钟
◎主  演 布列塔尼·德里斯代尔 Brittany Drisdelle
       沙维尔·索特洛 Xavier Sotelo
◎标  签 可骇 | 惊悚 | 血腥 | 加拿大 | 剧情不可,血腥不错 | 2019 | 看电影才是端庄事 | 犯罪
◎简  介


  惊悚,冷和螺旋球笑剧 和小比基尼和血腥支解在这个氯和血浸的谋杀奥秘
  1. Video
  2. ID                                       : 1
  3. Format                                   : AVC
  4. Format/Info                              : Advanced Video Codec
  5. Format profile                           : [email protected]
  6. Format settings                          : CABAC / 5 Ref Frames
  7. Format settings, CABAC                   : Yes
  8. Format settings, Reference frames        : 5 frames
  9. Codec ID                                 : V_MPEG4/ISO/AVC
  10. Duration                                 : 1 h 11 min
  11. Bit rate                                 : 10.8 Mb/s
  12. Width                                    : 1 918 pixels
  13. Height                                   : 804 pixels
  14. Display aspect ratio                     : 2.40:1
  15. Frame rate mode                          : Constant
  16. Frame rate                               : 23.976 (24000/1001/189150) FPS
  17. Color space                              : YUV
  18. Chroma subsampling                       : 4:2:0
  19. Bit depth                                : 8 bits
  20. Scan type                                : Progressive
  21. Bits/(Pixel*Frame)                       : 0.291
  22. Stream size                              : 5.35 GiB (94%)
  23. Writing library                          : x264 core 157 r2935 545de2f
  24. Encoding settings                        : cabac=1 / ref=5 / deblock=1:-3:-3 / analyse=0x3:0x133 / me=umh / subme=11 / psy=1 / psy_rd=1.00:0.00 / mixed_ref=1 / me_range=32 / chroma_me=1 / trellis=2 / 8x8dct=1 / cqm=0 / deadzone=21,11 / fast_pskip=0 / chroma_qp_offset=-2 / threads=6 / lookahead_threads=1 / sliced_threads=0 / nr=0 / decimate=0 / interlaced=0 / bluray_compat=0 / constrained_intra=0 / bframes=16 / b_pyramid=2 / b_adapt=2 / b_bias=0 / direct=3 / weightb=1 / open_gop=0 / weightp=2 / keyint=240 / keyint_min=24 / scenecut=40 / intra_refresh=0 / rc_lookahead=60 / rc=crf / mbtree=0 / crf=16.8 / qcomp=0.60 / qpmin=0 / qpmax=69 / qpstep=4 / vbv_maxrate=62500 / vbv_bufsize=78125 / crf_max=0.0 / nal_hrd=none / filler=0 / ip_ratio=1.30 / pb_ratio=1.20 / aq=1:0.90
  25. Default                                  : Yes
  26. Forced                                   : No
  27. Color range                              : Limited
  28. Color primaries                          : BT.709
  29. Transfer characteristics                 : BT.709
  30. Matrix coefficients                      : BT.709
  31. Audio
  32. ID                                       : 2
  33. Format                                   : AC-3
  34. Format/Info                              : Audio Coding 3
  35. Commercial name                          : Dolby Digital
  36. Codec ID                                 : A_AC3
  37. Duration                                 : 1 h 11 min
  38. Bit rate mode                            : Constant
  39. Bit rate                                 : 640 kb/s
  40. Channel(s)                               : 6 channels
  41. Channel layout                           : L R C LFE Ls Rs
  42. Sampling rate                            : 48.0 kHz
  43. Frame rate                               : 31.250 FPS (1536 SPF)
  44. Compression mode                         : Lossy
  45. Stream size                              : 326 MiB (6%)
  46. Language                                 : English
  47. Service kind                             : Complete Main
  48. Default                                  : Yes
  49. Forced                                   : No
  50. Text
  51. ID                                       : 3
  52. Format                                   : UTF-8
  53. Codec ID                                 : S_TEXT/UTF8
  54. Codec ID/Info                            : UTF-8 Plain Text
  55. Duration                                 : 1 h 8 min
  56. Bit rate                                 : 52 b/s
  57. Count of elements                        : 1015
  58. Stream size                              : 26.3 KiB (0%)
  59. Language                                 : English
  60. Default                                  : Yes
  61. Forced                                   : No
  62. Menu
  63. 00:00:00.000                             : :Chapter 1
  64. 00:10:00.600                             : :Chapter 2
  65. 00:20:01.200                             : :Chapter 3
  66. 00:30:01.800                             : :Chapter 4
  67. 00:40:02.400                             : :Chapter 5
  68. 00:50:03.000                             : :Chapter 6
  69. 01:00:03.600                             : :Chapter 7
  70. 01:10:04.200                             : :Chapter 8
复制代码






                                       
                                       

                                       
                                       
                                       




回复

使用道具 举报

懒得打字嘛,点击右侧快捷回复 【右侧内容,后台自定义】
您需要登录后才可以回帖 登录 | 立即加入

本版积分规则

Archiver|小黑屋| 蓝光电影网 |网站地图

Copyright © 2021 Comsenz Inc. Powered by 蓝光电影网

蓝光电影网

本站内容由用户自主分享和转载自互联网,转载目的在于传递更多信息,并不代表本网赞同其观点和对其真实性负责。

如有侵权、违反国家法律政策行为,请联系我们,我们会第一时间及时清除和处理!

举报反馈邮箱:[email protected]

快速回复 返回顶部 返回列表