找回密码

蓝光电影网

查看: 13|回复: 0

[惊悚] 孤身 Alone.2020.720p.BluRay.x264-WoAT 2.73GB

[复制链接]
蓝光币
426
发表于 2020-11-2 20:50:34 | 显示全部楼层 |阅读模式


◎译  名 孤身
◎片  名 Alone
◎年  代 2020
◎产  地 美国
◎类  别 惊悚
◎语  言 英语
◎上映日期 2020-09-18(美国)
◎IMDb评分  6.1/10 from 4053 users
◎IMDb链接  https://www.imdb.com/title/tt7711170/
◎豆瓣评分 5.7/10 from 589 users
◎豆瓣链接 https://movie.douban.com/subject/35050805/
◎片  长 98分钟
◎导  演 约翰·海姆斯 John Hyams
◎编  剧 马蒂亚斯·奥尔森 Mattias Olsson
◎主  演 朱尔斯·威尔科克斯 Jules Willcox
       马克·门查卡 Marc Menchaca
       安东尼·希尔德 Anthony Heald
◎标  签 惊悚 | 犯罪 | 逃杀 | 美国 | 2020 | 美国电影 | 电影 | 2020s
◎简  介


  一个刚死了丈夫的孀妇单独开车出城想减缓悲痛,却被一个陌生男人跟踪、绑架,关在人迹罕至的林中木屋里,并告诉她自己不是初犯。顽强的女子拼命逃了进来,在林间、河水里与残暴的绑架者展开周旋。
  1. Video
  2. ID                                       : 1
  3. Format                                   : AVC
  4. Format/Info                              : Advanced Video Codec
  5. Format profile                           : [email protected]
  6. Format settings                          : CABAC / 8 Ref Frames
  7. Format settings, CABAC                   : Yes
  8. Format settings, Reference frames        : 8 frames
  9. Codec ID                                 : V_MPEG4/ISO/AVC
  10. Duration                                 : 1 h 32 min
  11. Bit rate                                 : 3 562 kb/s
  12. Width                                    : 1 280 pixels
  13. Height                                   : 534 pixels
  14. Display aspect ratio                     : 2.40:1
  15. Frame rate mode                          : Constant
  16. Frame rate                               : 23.976 (24000/1001/189150) FPS
  17. Color space                              : YUV
  18. Chroma subsampling                       : 4:2:0
  19. Bit depth                                : 8 bits
  20. Scan type                                : Progressive
  21. Bits/(Pixel*Frame)                       : 0.217
  22. Stream size                              : 2.30 GiB (84%)
  23. Writing library                          : x264 core 161 r3018 db0d417
  24. Encoding settings                        : cabac=1 / ref=8 / deblock=1:-3:-3 / analyse=0x3:0x133 / me=umh / subme=9 / psy=1 / psy_rd=1.00:0.00 / mixed_ref=1 / me_range=32 / chroma_me=1 / trellis=2 / 8x8dct=1 / cqm=0 / deadzone=21,11 / fast_pskip=0 / chroma_qp_offset=-2 / threads=16 / lookahead_threads=2 / sliced_threads=0 / nr=0 / decimate=0 / interlaced=0 / bluray_compat=0 / constrained_intra=0 / bframes=8 / b_pyramid=2 / b_adapt=2 / b_bias=0 / direct=3 / weightb=1 / open_gop=0 / weightp=2 / keyint=250 / keyint_min=23 / scenecut=40 / intra_refresh=0 / rc_lookahead=60 / rc=crf / mbtree=1 / crf=16.0 / qcomp=0.60 / qpmin=0 / qpmax=69 / qpstep=4 / ip_ratio=1.40 / aq=3:0.88
  25. Default                                  : Yes
  26. Forced                                   : No
  27. Color range                              : Limited
  28. Matrix coefficients                      : BT.709

  29. Audio
  30. ID                                       : 2
  31. Format                                   : AC-3
  32. Format/Info                              : Audio Coding 3
  33. Commercial name                          : Dolby Digital
  34. Codec ID                                 : A_AC3
  35. Duration                                 : 1 h 32 min
  36. Bit rate mode                            : Constant
  37. Bit rate                                 : 640 kb/s
  38. Channel(s)                               : 6 channels
  39. Channel layout                           : L R C LFE Ls Rs
  40. Sampling rate                            : 48.0 kHz
  41. Frame rate                               : 31.250 FPS (1536 SPF)
  42. Compression mode                         : Lossy
  43. Stream size                              : 423 MiB (15%)
  44. Title                                    : English
  45. Language                                 : English
  46. Service kind                             : Complete Main
  47. Default                                  : No
  48. Forced                                   : No

  49. Text #1
  50. ID                                       : 3
  51. Format                                   : PGS
  52. Muxing mode                              : zlib
  53. Codec ID                                 : S_HDMV/PGS
  54. Codec ID/Info                            : Picture based subtitle format used on BDs/HD-DVDs
  55. Duration                                 : 1 h 30 min
  56. Bit rate                                 : 26.8 kb/s
  57. Count of elements                        : 2180
  58. Stream size                              : 17.3 MiB (1%)
  59. Title                                    : English
  60. Language                                 : English
  61. Default                                  : No
  62. Forced                                   : No

  63. Text #2
  64. ID                                       : 4
  65. Format                                   : PGS
  66. Muxing mode                              : zlib
  67. Codec ID                                 : S_HDMV/PGS
  68. Codec ID/Info                            : Picture based subtitle format used on BDs/HD-DVDs
  69. Duration                                 : 1 h 30 min
  70. Bit rate                                 : 21.2 kb/s
  71. Count of elements                        : 1706
  72. Stream size                              : 13.8 MiB (0%)
  73. Title                                    : Spanish
  74. Language                                 : Spanish
  75. Default                                  : No
  76. Forced                                   : No

  77. Menu
  78. 00:00:00.000                             : en:Chapter 01
  79. 00:02:33.778                             : en:Chapter 02
  80. 00:08:22.835                             : en:Chapter 03
  81. 00:13:04.408                             : en:Chapter 04
  82. 00:18:23.811                             : en:Chapter 05
  83. 00:25:39.871                             : en:Chapter 06
  84. 00:32:36.955                             : en:Chapter 07
  85. 00:37:45.429                             : en:Chapter 08
  86. 00:39:35.790                             : en:Chapter 09
  87. 00:44:28.457                             : en:Chapter 10
  88. 00:51:29.252                             : en:Chapter 11
  89. 00:58:04.105                             : en:Chapter 12
  90. 01:06:33.155                             : en:Chapter 13
  91. 01:16:36.425                             : en:Chapter 14
  92. 01:21:30.343                             : en:Chapter 15
  93. 01:25:43.930                             : en:Chapter 16
复制代码




                                       
                                       

                                       
                                       
                                       




回复

使用道具 举报

懒得打字嘛,点击右侧快捷回复 【右侧内容,后台自定义】
您需要登录后才可以回帖 登录 | 立即加入

本版积分规则

Archiver|小黑屋| 蓝光电影网 |网站地图

Copyright © 2021 Comsenz Inc. Powered by 蓝光电影网

蓝光电影网

本站内容由用户自主分享和转载自互联网,转载目的在于传递更多信息,并不代表本网赞同其观点和对其真实性负责。

如有侵权、违反国家法律政策行为,请联系我们,我们会第一时间及时清除和处理!

举报反馈邮箱:[email protected]

快速回复 返回顶部 返回列表